<?xml version="1.0" standalone="no"?>
<!DOCTYPE svg PUBLIC "-//W3C//DTD SVG 1.1//EN" "http://www.w3.org/Graphics/SVG/1.1/DTD/svg11.dtd" >
<svg xmlns="http://www.w3.org/2000/svg">
<metadata>Generated by IcoMoon</metadata>
<defs>
<font id="icomoon" horiz-adv-x="1024">
<font-face units-per-em="1024" ascent="960" descent="-64" />
<missing-glyph horiz-adv-x="1024" />
<glyph unicode="&#x20;" horiz-adv-x="512" d="" />
<glyph unicode="&#xe900;" glyph-name="g" d="M636.314 435.024h131.686v-129.29c-36.723-12.275-75.504-17.728-123.987-17.728-15.29-0.106-30.56 1.053-45.638 3.456-67.475 11.526-109.472 64.845-109.472 139.264-0.262 14.925 1.494 29.821 5.226 44.323 17.405 63.293 71.117 100.877 145.034 100.877 26.742 0.81 53.232-5.142 76.762-17.242v11.482h42.79v-84.79h-46.662v3.456c0 25.709-28.278 43.35-69.066 43.35-62.25 0-100.189-38.339-100.189-100.48 0-63.693 36.726-99.373 102.195-99.373 25.066 0.109 50.022 3.085 74.336 8.864v52.035h-83.014v41.795zM456.797 381.35c0-57.619-38.778-92.858-102.243-92.858-61.362 0-93.7 28.368-98.554 85.942h49.278c3.64-27.658 21.42-43.747 49.276-43.747 7.088-0.173 14.128 1.13 20.627 3.814 18.198 7.312 29.491 24.954 29.491 45.696 0.003 6.422-1.229 12.79-3.638 18.794-6.861 18.038-23.008 28.365-45.264 28.365-5.562-0.090-11.098-0.726-16.522-1.904-11.712-2.704-19.831-6.915-32.664-16.49l-36.351 21.498 10.919 139.616h161.178v-72.512h-46.058v30.317h-69.482l-5.648-68.656c13.421 7.184 28.653 10.755 44.051 10.326 56.045 0 91.603-34.128 91.603-88.202zM128 64h768v768h-768v-768zM192 768h640v-640h-640v640z" />
<glyph unicode="&#xe901;" glyph-name="accessible" d="M512 704c-53.021 0-96 42.981-96 96s42.979 96 96 96c53.021 0 96-42.981 96-96s-42.979-96-96-96zM512 768c17.674 0 32 14.327 32 32s-14.326 32-32 32c-17.674 0-32-14.327-32-32s14.326-32 32-32zM448 608c0 35.346 28.653 64 64 64h37.766c30.509 0 56.774-21.533 62.758-51.45l23.453-117.277 143.907-57.562-23.77-59.424-143.904 57.562c-20.083 8.035-34.749 25.664-38.989 46.874l-23.456 117.277h-37.766v-288h224c35.347 0 64-28.653 64-64v-224h-64v224h-224c-35.347 0-64 28.653-64 64v288zM192 256.003c0 112.848 83.447 206.205 192 221.731v-64.931c-73.032-14.826-128-79.395-128-156.8 0-88.365 71.635-160 160-160 65.61 0 121.997 39.491 146.688 96h68.035c-27.536-92.528-113.251-160-214.723-160-123.712 0-224 100.288-224 224z" />
<glyph unicode="&#xe902;" glyph-name="accessories" d="M160 864v-703.901c0-70.746 57.35-128.099 128.099-128.099h447.734c70.746 0 128.099 57.35 128.099 128.099v703.901h-63.99l0.003-703.901c0-35.35-28.758-64.112-64.112-64.112h-447.734c-35.35 0-64.112 28.762-64.112 64.112v703.901h-63.987zM320 768c0 53.019 42.979 96 96 96h192c53.021 0 96-42.981 96-96s-42.979-96-96-96h-192c-53.021 0-96 42.981-96 96zM416 800c-17.674 0-32-14.327-32-32s14.326-32 32-32h192c17.674 0 32 14.327 32 32s-14.326 32-32 32h-192zM480 576h64v-160h160v-64h-160v-160h-64v160h-160v64h160v160z" />
<glyph unicode="&#xe903;" glyph-name="add-bookmark" d="M736 896h-64v-128h-128v-64h128v-128h64v128h128v64h-128v128zM224 832v-825.734l288 180 288-180v505.734h-64v-390.266l-224 140-224-140v646.266h192v64h-256z" />
<glyph unicode="&#xe904;" glyph-name="add" d="M480 480v160h64v-160h160v-64h-160v-160h-64v160h-160v64h160zM896 448c0 212.077-171.923 384-384 384s-384-171.923-384-384c0-212.077 171.923-384 384-384s384 171.923 384 384zM832 448c0-176.73-143.27-320-320-320s-320 143.27-320 320c0 176.73 143.27 320 320 320s320-143.27 320-320z" />
<glyph unicode="&#xe905;" glyph-name="address-book" d="M288 832h448c70.576 0 128-57.418 128-128v-512c0-70.582-57.424-128-128-128h-448c-70.576 0-128 57.418-128 128v32h64v-32c0-35.286 28.714-64 64-64v64c0 62.678 25.743 119.344 67.232 160 15.546-15.232 33.299-28.218 52.739-38.432-34.259-29.344-55.971-72.922-55.971-121.568v-64h320v64c0 48.646-21.712 92.224-55.971 121.568 19.44 10.214 37.194 23.2 52.739 38.432 41.488-40.656 67.232-97.322 67.232-160v-64c35.286 0 64 28.714 64 64v512c0 35.286-28.714 64-64 64h-448c-35.286 0-64-28.714-64-64v-32h-64v32c0 70.582 57.424 128 128 128zM512 352c39.718 0 76.054 14.47 104.029 38.429 34.259 29.347 55.971 72.925 55.971 121.571 0 88.365-71.635 160-160 160s-160-71.635-160-160c0-48.646 21.712-92.224 55.971-121.571 27.974-23.958 64.31-38.429 104.029-38.429zM608 512c0-53.021-42.979-96-96-96s-96 42.979-96 96c0 53.021 42.979 96 96 96s96-42.979 96-96zM224 608h-128v-64h128v64zM96 480h128v-64h-128v64zM224 352h-128v-64h128v64z" />
<glyph unicode="&#xe906;" glyph-name="app-menu" d="M320 704c0-35.346-28.654-64-64-64s-64 28.654-64 64c0 35.346 28.654 64 64 64s64-28.654 64-64zM320 192c0-35.347-28.654-64-64-64s-64 28.653-64 64c0 35.347 28.654 64 64 64s64-28.653 64-64zM256 384c35.346 0 64 28.653 64 64s-28.654 64-64 64c-35.346 0-64-28.653-64-64s28.654-64 64-64zM576 704c0-35.346-28.653-64-64-64s-64 28.654-64 64c0 35.346 28.653 64 64 64s64-28.654 64-64zM768 640c35.347 0 64 28.654 64 64s-28.653 64-64 64c-35.347 0-64-28.654-64-64s28.653-64 64-64zM576 192c0-35.347-28.653-64-64-64s-64 28.653-64 64c0 35.347 28.653 64 64 64s64-28.653 64-64zM768 128c35.347 0 64 28.653 64 64s-28.653 64-64 64c-35.347 0-64-28.653-64-64s28.653-64 64-64zM576 448c0-35.347-28.653-64-64-64s-64 28.653-64 64c0 35.347 28.653 64 64 64s64-28.653 64-64zM768 384c35.347 0 64 28.653 64 64s-28.653 64-64 64c-35.347 0-64-28.653-64-64s28.653-64 64-64z" />
<glyph unicode="&#xe907;" glyph-name="appartment" d="M192 832v-768h64v704h384v64h-448zM512 128h-64v-64h64v64zM704 832h64v-768h-64v768zM320 192c0 35.347 28.653 64 64 64h192c35.347 0 64-28.653 64-64v-128h-64v128h-192v-128h-64v128zM320 704h64v-64h-64v64zM384 576h-64v-64h64v64zM320 448h64v-64h-64v64zM512 704h-64v-64h64v64zM448 576h64v-64h-64v64zM512 448h-64v-64h64v64zM576 704h64v-64h-64v64zM640 576h-64v-64h64v64zM576 448h64v-64h-64v64z" />
<glyph unicode="&#xe908;" glyph-name="arrow-back" d="M160 448l340.8-340.8 45.12 45.12-295.68 295.68 295.68 295.679-45.12 45.12-340.8-340.799zM373.12 416h490.88v64h-490.88l-32-32 32-32z" />
<glyph unicode="&#xe909;" glyph-name="arrow-downward" d="M466.88 141.12l45.12-45.12 340.8 340.8-45.12 45.12-295.68-295.68-295.68 295.68-45.12-45.12 295.68-295.68zM544 309.12v490.879h-64v-490.879l32-32 32 32z" />
<glyph unicode="&#xe90a;" glyph-name="arrow-forward" d="M864 448l-340.8-340.8-45.12 45.12 295.68 295.68-295.68 295.679 45.12 45.12 340.8-340.799zM650.88 416h-490.88v64h490.88l32-32-32-32z" />
<glyph unicode="&#xe90b;" glyph-name="arrow-upward" d="M466.88 754.879l45.12 45.12 340.8-340.799-45.12-45.12-295.68 295.679-295.68-295.679-45.12 45.12 295.68 295.679zM544 586.88v-490.88h-64v490.88l32 32 32-32z" />
<glyph unicode="&#xe90c;" glyph-name="assist" d="M896 287.875v-223.962h-224v64h160v159.962c0 35.286-28.714 64-64 64h-92.323c18.163 11.613 35.424 25.181 51.28 41.037 7.376 7.376 14.298 15.046 20.755 22.963h20.288c70.582 0 128-57.424 128-128zM128 63.914h224v64h-160v159.962c0 35.286 28.714 64 64 64h92.323c-18.163 11.613-35.424 25.181-51.28 41.037-7.376 7.376-14.288 15.046-20.749 22.963h-20.294c-70.582 0-128-57.424-128-128v-223.962zM670.544 449.338c87.402 87.424 87.418 229.664 0.006 317.075-42.349 42.349-98.656 65.674-158.55 65.674s-116.195-23.325-158.544-65.674c-87.418-87.411-87.418-229.664-0.006-317.075 42.355-42.349 98.662-65.674 158.55-65.674s116.202 23.325 158.544 65.674zM625.293 721.161c62.464-62.464 62.464-164.112 0-226.576-30.256-30.262-70.493-46.925-113.293-46.925s-83.024 16.662-113.293 46.925c-62.464 62.464-62.464 164.112 0.006 226.576 30.262 30.262 70.493 46.925 113.286 46.925s83.030-16.662 113.293-46.925zM384 92.618l60.435 235.354c20.003-4.81 40.822-7.533 62.208-7.923l-53.619-208.816 58.976-57.418 58.976 57.418-53.619 208.816c21.386 0.39 42.205 3.114 62.208 7.923l60.435-235.354-128-124.618-128 124.618z" />
<glyph unicode="&#xe90d;" glyph-name="attachment" d="M770.275 764.785c37.491-37.49 37.491-98.274 0-135.764l-339.411-339.411c-12.496-12.496-32.758-12.496-45.254 0-12.499 12.496-12.499 32.758 0 45.254l271.526 271.53-45.254 45.254-271.53-271.529c-37.489-37.491-37.489-98.275 0-135.763 37.491-37.491 98.275-37.491 135.766 0l339.411 339.411c62.483 62.483 62.483 163.789 0 226.273s-163.792 62.484-226.275 0l-362.038-362.039c-87.477-87.475-87.478-229.306 0-316.784 87.477-87.475 229.305-87.475 316.784 0l294.157 294.157-45.254 45.254-294.157-294.157c-62.483-62.483-163.792-62.483-226.274 0-62.484 62.486-62.484 163.792 0 226.275l362.037 362.039c37.491 37.49 98.275 37.49 135.766 0z" />
<glyph unicode="&#xe90e;" glyph-name="battery" d="M288 544h-64v-192h64v192zM352 544h64v-192h-64v192zM544 544h-64v-192h64v192zM96 608v-320c0-35.347 28.654-64 64-64h608c35.347 0 64 28.653 64 64v320c0 35.346-28.653 64-64 64h-608c-35.346 0-64-28.654-64-64zM160 608h608v-320h-608v320zM928 544h-64v-192h64v192z" />
<glyph unicode="&#xe90f;" glyph-name="block" d="M512 64c-71.213 0-137.898 19.386-195.067 53.165l47.051 47.053c44.262-23.136 94.611-36.218 148.016-36.218 176.73 0 320 143.27 320 320 0 53.405-13.082 103.754-36.218 148.016l47.053 47.051c33.779-57.17 53.165-123.854 53.165-195.067 0-212.077-171.923-384-384-384zM805.219 695.961l-45.443-45.444c0 0 0 0 0 0l-450.295-450.294c0 0.003 0 0 0 0l-45.442-45.443c0 0 0 0 0 0l-0.94-0.938-45.255 45.254 543.059 543.058 22.208-22.207c0.278-0.279 0.56-0.559 0.838-0.839l22.208-22.208-0.938-0.94c0 0 0 0 0 0zM512 768c53.405 0 103.757-13.083 148.019-36.218l47.053 47.051c-57.171 33.782-123.859 53.168-195.072 53.168-212.077 0-384-171.923-384-384 0-71.213 19.386-137.901 53.168-195.072l47.051 47.053c-23.135 44.262-36.218 94.614-36.218 148.019 0 176.73 143.27 320 320 320z" />
<glyph unicode="&#xe910;" glyph-name="blog" d="M831.763 96.058h-575.773v703.889h402.678l109.238-109.232v-530.714h63.99v557.21l-146.72 146.723h-493.178v-831.866h639.763v63.99zM320 704.001v-288.001h192v288.001h-192zM384 640.001h64v-160.001h-64v160.001zM576 608h128v-64h-128v64zM704 480h-128v-64h128v64zM320 352h384v-64h-384v64zM704 224h-384v-64h384v64z" />
<glyph unicode="&#xe911;" glyph-name="bluetooth" d="M480 877.254v-351.999l-137.373 137.372-45.254-45.254 169.372-169.373-169.372-169.373 45.254-45.254 137.373 137.373v-352l253.254 253.254-176 176 176 176-253.254 253.254zM544 370.746l98.746-98.746-98.746-98.746v197.491zM544 525.254v197.49l98.746-98.744-98.746-98.746z" />
<glyph unicode="&#xe912;" glyph-name="bookmark-active" d="M224 832h448v-64h-384v-646.266l224 140 224-140v710.266h64v-825.734l-288 180-288-180v825.734z" />
<glyph unicode="&#xe913;" glyph-name="bookmark-selected" d="M800 832h-576v-825.734l288 180 288-180v825.734z" />
<glyph unicode="&#xe914;" glyph-name="business-24-7" d="M638.064 166.371c40.31 23.274 73.555 54.086 98.979 89.632h80.112c-32.64-59.926-81.667-111.904-145.091-148.522-183.664-106.038-418.515-43.11-524.554 140.554s-43.111 418.514 140.554 524.553c130.573 75.386 287.014 65.373 404.65-12.708l-35.264 121.164 65.29 19.003 68.208-234.345-234.346-68.204-19.002 65.29 123.901 36.061c-97.482 68.243-229.584 78.273-339.437 14.85-151.14-87.26-202.925-280.524-115.664-431.663 87.261-151.142 280.525-202.925 431.664-115.664zM280.652 350.941c-6.281-10.125-9.985-20.438-11.109-30.938h155.11v29.533h-108.282c3.469 5.811 7.312 10.922 11.53 15.328 4.314 4.406 10.97 10.125 19.971 17.155 21.936 17.251 36.656 29.437 44.157 36.563 10.029 9.654 17.107 18.563 21.232 26.717 4.221 8.253 6.33 17.533 6.33 27.846 0 18.56-6.611 33.046-19.827 43.453-12.752 9.936-30 14.906-51.75 14.906-26.157 0-46.032-7.968-59.626-23.907-9.093-10.688-15.093-26.061-18-46.125h32.625c1.594 9.939 4.078 17.485 7.453 22.64 7.875 11.907 20.108 17.859 36.703 17.859 10.781 0 19.594-2.531 26.438-7.594 7.123-5.248 10.688-12.656 10.688-22.218 0-9.094-3.050-17.53-9.142-25.312-4.032-5.062-14.998-15.843-32.906-32.346-25.688-23.53-41.156-38.013-46.406-43.453-5.156-5.344-10.219-12.045-15.188-20.109zM557.824 362.755v-42.752h32.483v42.752h30.797v29.67h-30.797v72.141h-32.483v-72.141h-65.11l62.016 135.002h-36.141l-62.157-138.378v-26.294h101.392zM713.357 527.427l-81.987-233.299h31.782l81.984 233.299h-31.779zM772.278 497.754h106.17l-83.952-177.75h37.968l80.579 181.69v25.734h-140.765v-29.674z" />
<glyph unicode="&#xe915;" glyph-name="business-24-h" d="M344.65 149.002c29.878-11.264 71.456-18.998 101.75-21.005v-67.286c-41.888 1.059-84.314 9.046-125.734 24.659-198.449 74.803-298.684 296.314-223.884 494.762s296.312 298.684 494.76 223.884c141.082-53.178 232.525-180.505 246.73-320.981l71.338 104.093 56.093-38.445-137.981-201.322-201.325 137.978 38.445 56.093 106.442-72.954c-9.030 118.653-85.030 227.169-203.725 271.908-163.306 61.555-345.592-20.931-407.147-184.238s20.931-345.59 184.238-407.146zM428.4 679.997v-249.917l-94.042-94.042 48.083-48.083 113.958 113.958v278.084h-68zM528.842 94.934c-6.282-10.125-9.984-20.438-11.11-30.938h155.11v29.533h-108.282c3.469 5.811 7.312 10.922 11.533 15.328 4.31 4.406 10.966 10.125 19.968 17.155 21.936 17.251 36.656 29.437 44.157 36.563 10.029 9.654 17.107 18.563 21.232 26.717 4.221 8.25 6.33 17.533 6.33 27.846 0 18.56-6.611 33.046-19.827 43.453-12.752 9.936-30 14.906-51.75 14.906-26.157 0-46.032-7.968-59.626-23.907-9.094-10.688-15.094-26.061-18-46.125h32.624c1.594 9.939 4.080 17.485 7.453 22.64 7.875 11.907 20.112 17.859 36.704 17.859 10.781 0 19.594-2.531 26.438-7.594 7.123-5.248 10.688-12.656 10.688-22.218 0-9.094-3.050-17.533-9.142-25.312-4.032-5.062-14.998-15.843-32.906-32.346-25.686-23.53-41.155-38.016-46.406-43.453-5.155-5.344-10.218-12.045-15.187-20.109zM799.613 106.746v-42.749h32.486v42.749h30.797v29.674h-30.797v72.141h-32.486v-72.141h-65.11l62.016 134.998h-36.141l-62.154-138.374v-26.298h101.389z" />
<glyph unicode="&#xe916;" glyph-name="calendar-ticket" d="M448 672h-64v160h64v-160zM512.877 352l-17.149-64h-175.728v64h192.877zM256 160h205.43c-5.725-21.731-5.501-43.645-0.333-64h-205.098c-70.582 0-128 57.424-128 128v416c0 70.576 57.418 128 128 128h64v-64h-64c-35.286 0-64-28.714-64-64v-416c0-35.286 28.714-64 64-64zM885.283 641.024c3.654-0.979 7.229-2.106 10.717-3.373v2.349c0 70.576-57.418 128-128 128h-64v-64h64c29.824 0 54.954-20.512 62.019-48.167l55.264-14.809zM320 544h244.323l-17.149-64h-227.174v64zM640 832h-64v-160h64v160zM791.757 404.448l-61.818 16.563-16.566-61.818 61.821-16.566 16.563 61.821zM606.301 454.141l33.13 123.638c9.146 34.141 44.24 54.403 78.381 45.254l185.459-49.693c34.141-9.149 54.403-44.243 45.254-78.384l-33.13-123.642-30.909 8.282-16.566-61.818 30.912-8.282-66.259-247.277c-9.146-34.141-44.24-54.403-78.381-45.254l-185.459 49.693c-34.141 9.149-54.403 44.243-45.254 78.384l66.256 247.277 30.909-8.282 16.566 61.821-30.909 8.282zM886.707 511.52l-185.459 49.696-33.13-123.642 30.909-8.282-16.563-61.821-30.909 8.282-66.259-247.274 185.459-49.693 66.256 247.277-30.912 8.282 16.566 61.818 30.912-8.282 33.13 123.638z" />
<glyph unicode="&#xe917;" glyph-name="calendar" d="M448 672h-64v160h64v-160zM704 352h-384v-64h384v64zM704 544h-384v-64h384v64zM640 832h-64v-160h64v160zM896 224v416c0 70.576-57.418 128-128 128h-64v-64h64c35.286 0 64-28.714 64-64v-416c0-35.286-28.714-64-64-64h-512c-35.286 0-64 28.714-64 64v416c0 35.286 28.714 64 64 64h64v64h-64c-70.582 0-128-57.424-128-128v-416c0-70.576 57.418-128 128-128h512c70.582 0 128 57.424 128 128z" />
<glyph unicode="&#xe918;" glyph-name="call-forward" d="M896 672.001l-148.8 148.8-45.12-45.12 103.68-103.68-103.68-103.681 45.12-45.12 148.8 148.801zM512 704.001v-64h192l32 32-32 32h-192zM160 768.001h120.236c33.948 0 66.504-13.486 90.51-37.49 49.987-49.987 49.987-131.032 0-181.020l-60.118-60.118-45.255 45.254 60.119 60.118c24.992 24.995 24.992 65.517 0 90.51-12.003 12.003-28.282 18.745-45.256 18.745h-87.408c16.091-310.318 264.856-559.083 575.172-575.172v87.408c0 16.973-6.742 33.251-18.746 45.254-24.992 24.995-65.517 24.995-90.509 0l-60.118-60.118-45.254 45.254 60.118 60.118c49.987 49.987 131.030 49.987 181.018 0 24.006-24.003 37.491-56.56 37.491-90.509v-120.237c0-17.674-14.326-32-32-32-371.136 0-672 300.867-672 672.001 0 17.673 14.327 32 32 32z" />
<glyph unicode="&#xe919;" glyph-name="call" d="M160 768c0 17.673 14.327 32 32 32h120.236c33.947 0 66.504-13.486 90.51-37.49 49.987-49.987 49.987-131.031 0-181.019l-60.118-60.118-45.255 45.254 60.119 60.118c24.992 24.993 24.992 65.516 0 90.509-12.003 12.003-28.282 18.745-45.256 18.745h-87.408c16.091-310.317 264.856-559.082 575.172-575.171v87.408c0 16.973-6.742 33.251-18.746 45.254-24.992 24.992-65.517 24.992-90.509 0l-60.118-60.118-45.254 45.254 60.118 60.118c49.987 49.987 131.030 49.987 181.018 0 24.006-24.006 37.491-56.563 37.491-90.509v-120.237c0-17.674-14.326-32-32-32-371.136 0-672 300.864-672 672z" />
<glyph unicode="&#xe91a;" glyph-name="camera" d="M864 64h-704c-35.2 0-64 28.8-64 64v480c0 35.2 28.8 64 64 64h704c35.2 0 64-28.8 64-64v-480c0-35.2-28.8-64-64-64zM160 128h704v480h-704v-480zM416 544h-160v-64h160v64zM480 736h-64v32h-160v-32h-64v32c0 35.2 28.8 64 64 64h160c35.2 0 64-28.8 64-64v-32zM640 192c-89.6 0-160 70.4-160 160s70.4 160 160 160c89.6 0 160-70.4 160-160s-70.4-160-160-160zM640 448c-54.4 0-96-41.6-96-96s41.6-96 96-96c54.4 0 96 41.6 96 96s-41.6 96-96 96z" />
<glyph unicode="&#xe91b;" glyph-name="cancel" d="M760.902 651.646l-45.254 45.255-203.648-203.647-203.647 203.647-45.255-45.255 203.647-203.646-203.647-203.648 45.255-45.254 203.647 203.648 203.648-203.648 45.254 45.254-203.648 203.648 203.648 203.646z" />
<glyph unicode="&#xe91c;" glyph-name="canteen" d="M448.003 800h64l-0.003-192c0-52.8-40-96-88.8-96h-23.2l0.003-448.797h-64l-0.003 448.797h-23.202c-48.8 0-88.8 42.4-88.8 95.2l0.003 192.8h64l-0.003-192c0-17.6 11.2-32 24.8-32h110.402c13.6 0 24.8 14.4 24.8 32l0.003 192zM400 800h-64v-160h64v160zM800 383.2h-127.997v-320.8h-64v767.998h32c90.4 0 159.997-73.6 159.997-163.2v-283.998zM736 667.198c0 43.2-24.797 80.8-63.997 94.4v-313.598h63.997v219.198z" />
<glyph unicode="&#xe91d;" glyph-name="case" d="M735.93 735.901v-95.901h-63.987v95.901c0 35.35-28.762 64.112-64.112 64.112h-191.734c-35.354 0-64.112-28.762-64.112-64.112l0.003-95.901h-63.99v95.901c0 70.749 57.354 128.099 128.099 128.099h191.734c70.749 0 128.099-57.354 128.099-128.099zM928 192v384c0 70.576-57.418 128-128 128v-64c35.286 0 64-28.714 64-64v-160h-192v-64h192v-160c0-35.286-28.714-64-64-64h-576c-35.286 0-64 28.714-64 64v160h192v64h-192v160c0 35.286 28.714 64 64 64v64c-70.582 0-128-57.424-128-128v-384c0-70.576 57.418-128 128-128h576c70.582 0 128 57.424 128 128zM416 416v-64c0-35.347 28.653-64 64-64h64c35.347 0 64 28.653 64 64v64c0 35.347-28.653 64-64 64h-64c-35.347 0-64-28.653-64-64zM480 416h64v-64h-64v64z" />
<glyph unicode="&#xe91e;" glyph-name="chat-bubble" d="M395.555 279.11v-151.11l146.669 151.11h218.666c44.182 0 80 35.818 80 80v328.89c0 44.183-35.818 80-80 80h-489.778c-44.183 0-80-35.817-80-80v-8h-64v8c0 79.529 64.471 144 144 144h489.778c79.53 0 144-64.471 144-144v-328.89c0-79.53-64.47-144-144-144h-191.597l-154.432-159.11h-83.306v159.11h-60.444c-79.529 0-144 64.47-144 144v240.89h64v-240.89c0-44.182 35.817-80 80-80h124.444z" />
<glyph unicode="&#xe91f;" glyph-name="chat-quotation" d="M395.555 279.11v-151.11l146.666 151.11h218.666c44.182 0 80 35.818 80 80v328.89c0 44.183-35.818 80-80 80h-489.777c-44.183 0-80-35.817-80-80v-8h-64v8c0 79.529 64.471 144 144 144h489.777c79.53 0 144-64.471 144-144v-328.89c0-79.53-64.47-144-144-144h-191.594l-154.432-159.11h-83.306v159.11h-60.446c-79.529 0-144 64.47-144 144v240.89h64v-240.89c0-44.182 35.817-80 80-80h124.446zM557.456 416l98.544 224h-96l-64-224h61.456zM432 416l96 224h-96l-64-224h64z" />
<glyph unicode="&#xe920;" glyph-name="chat" d="M960 704v-223.962c0-70.576-57.418-128-128-128h-0.006l-0.016-128.006h-61.222l-66.755 66.762v90.518l63.994-63.997 0.013 98.726h63.994c35.286 0 64 28.714 64 64v223.958c0 35.286-28.714 64-64 64h-320c-23.581 0-43.994-12.966-55.098-32h-68.691c14.266 55.114 64.275 96 123.789 96h320c70.582 0 128-57.424 128-128zM640 544v-224c0-70.576-57.418-128-128-128l-131.155-0.374-127.632-127.626h-61.213v128c-70.582 0-128 57.424-128 128v224c0 70.576 57.418 128 128 128h320c70.582 0 128-57.424 128-128zM576 544c0 35.286-28.714 64-64 64h-320c-35.286 0-64-28.714-64-64v-224c0-35.286 28.714-64 64-64h64v-98.714l98.256 98.262 157.651 0.451c35.382 0 64.093 28.714 64.093 64v224z" />
<glyph unicode="&#xe921;" glyph-name="checkmark-checkbox" d="M758.627 585.373l-310.627-310.627-182.627 182.627 45.255 45.254 137.372-137.373 265.373 265.373 45.254-45.254z" />
<glyph unicode="&#xe922;" glyph-name="chevron-down" d="M288.001 536l47.999 48 175.968-175.968 176.032 175.968 48-48-224.032-223.968-223.967 223.968z" />
<glyph unicode="&#xe923;" glyph-name="chevron-left" d="M600 672l48-48-175.965-175.968 175.965-176.032-48-48-223.968 224.032 223.968 223.968z" />
<glyph unicode="&#xe924;" glyph-name="chevron-right" d="M424 224l-48 48 175.968 175.968-175.968 176.032 48 48 224-224.067-224-223.933z" />
<glyph unicode="&#xe925;" glyph-name="chevron-up" d="M512.067 583.933l223.933-223.933-48-48-175.968 175.965-176.032-175.965-48 48 224.067 223.933z" />
<glyph unicode="&#xe926;" glyph-name="clear" d="M625.136 606.39l-113.136-113.136-113.136 113.136-45.254-45.254 113.136-113.139-113.136-113.136 45.254-45.254 113.136 113.136 113.136-113.136 45.254 45.254-113.136 113.136 113.136 113.139-45.254 45.254zM512 64c-212.077 0-384 171.923-384 384s171.923 384 384 384c212.077 0 384-171.923 384-384s-171.923-384-384-384zM512 128c176.73 0 320 143.27 320 320s-143.27 320-320 320c-176.73 0-320-143.27-320-320s143.27-320 320-320z" />
<glyph unicode="&#xe927;" glyph-name="cloud-download" d="M960 350v-221.331h-255.789v64h191.789v157.331c0 45.194-24.998 85.955-66.867 109.037l-14.23 7.85-2.064 16.118c-10.269 80.381-79.994 140.995-162.176 140.995-16.97 0-34.342-3.357-54.682-10.557l-22.525-7.981-14.051 19.338c-36.243 49.907-91.43 78.531-151.398 78.531-103.424 0-187.562-82.243-187.562-183.331 0-6.899 1.955-26.55 3.274-36.438l3.149-23.619-21.725-9.789c-47.626-21.456-77.142-50.819-77.142-130.826 0-69.843 58.218-126.662 129.782-126.662h62.33v-64h-62.33c-106.851 0-193.782 85.533-193.782 190.662 0 105.994 46.467 152.525 93.77 178.688-0.736 8.064-1.325 16.342-1.325 21.981 0 136.381 112.851 247.331 251.555 247.331 73.037 0 140.637-31.325 188.72-86.707 18.726 4.95 36.525 7.376 53.942 7.376 108.918 0 202.138-76.858 223.088-181.213 53.574-35.395 86.25-94.138 86.25-156.787v0.003zM692.112 402.486l-45.251 45.251-134.864-134.858-134.864 134.858-45.251-45.251 180.112-180.118 180.118 180.118z" />
<glyph unicode="&#xe928;" glyph-name="coffee-cup" d="M636.797 636.803c-25.6 25.6-64 35.2-105.6 25.6-38.4-6.4-76.8-28.8-108.8-60.8s-54.4-70.4-60.8-108.8c-9.6-41.6 0-80 25.6-105.6s70.4-28.8 105.6-25.6c38.4 6.4 76.8 28.8 108.8 60.8s54.4 70.4 60.8 108.8c9.6 41.6 0 80-25.6 105.6zM579.197 595.203c-5.328-18.65-28.4-30.643-59.981-47.062-6.352-3.302-13.053-6.787-20.019-10.538l-4.986-2.685c-37.165-20.003-43.808-23.578-62.214-38.915 6.4 19.2 19.2 41.6 38.4 57.6 44.8 44.8 102.4 44.8 108.8 41.6zM524.797 483.203c4.666 2.666 9.469 5.331 14.323 8.026 18.461 10.243 37.677 20.906 52.877 33.574-6.4-19.2-19.2-41.6-38.4-57.6-44.8-44.8-96-44.8-112-38.4 0 0 41.6 35.2 83.2 54.4zM656.003 192l9.6 64h-310.4l9.6-64h291.2zM259.198 64h505.599l124.8 691.2c6.4 41.6-25.6 76.8-64 76.8h-627.199c-41.6 0-70.4-38.4-64-76.8l124.8-691.2zM707.197 128h-393.599l-115.2 640h623.999l-115.2-640z" />
<glyph unicode="&#xe929;" glyph-name="collect-mobilpoints" d="M544 704c0 70.692 57.309 128 128 128s128-57.308 128-128c0-70.691-57.309-128-128-128s-128 57.309-128 128zM672 768c-35.347 0-64-28.654-64-64s28.653-64 64-64c35.347 0 64 28.654 64 64s-28.653 64-64 64zM320 704c-70.692 0-128-57.308-128-128s57.308-128 128-128c70.691 0 128 57.309 128 128s-57.309 128-128 128zM256 576c0 35.347 28.654 64 64 64s64-28.653 64-64c0-35.347-28.653-64-64-64s-64 28.653-64 64zM704.010 192h63.99v128h64v-192h-127.99v64zM256 192h384.032v-64h-448.032v192h64v-128zM576 512c-70.691 0-128-57.309-128-128s57.309-128 128-128c70.691 0 128 57.309 128 128s-57.309 128-128 128zM512 384c0 35.347 28.653 64 64 64s64-28.653 64-64c0-35.347-28.653-64-64-64s-64 28.653-64 64z" />
<glyph unicode="&#xe92a;" glyph-name="company" d="M384 864v-192h-192v-640h64v384h128v-128h64v128h128v-128h64v128h128v-384h64v832h-448zM768 608v-128h-128v128h128zM576 608v-128h-128v128h128zM384 608v-128h-128v128h128zM448 672v128h128v-128h-128zM640 672v128h128v-128h-128zM544 96h-64v-64h64v64zM352 224v-192h64v128h192v-128h64v192h-320z" />
<glyph unicode="&#xe92b;" glyph-name="connect-plus-devices" d="M960 223.901v384.176c0 35.303-28.723 64.029-64.029 64.029h-288.426c-35.302 0-64.029-28.723-64.029-64.029v-96.042h64.029v96.042h288.426v-384.179l-191.878-0.022v-64.010h191.878c35.302 0 64.029 28.723 64.029 64.035zM128.029 384h191.712v-64.032h-255.741v448.183c0 39.491 24.454 64.029 63.818 64.029h469.456c37.418 0 67.862-33.517 67.862-74.71v-21.331h-64.029v21.331c0 6.358-3.037 10.218-4.307 10.762l-468.771-0.080v-384.151zM639.85 383.968v-256.115c0-35.309-28.723-64.035-64.029-64.035h-128.061c-35.302 0-64.029 28.723-64.029 64.035v256.115c0 35.302 28.723 64.029 64.029 64.029h128.061c35.302 0 64.029-28.723 64.029-64.029zM575.859 127.846l-0.038 256.122h-128.061v-256.115l128.099-0.006zM288 704h64v-96h96v-64h-96v-96h-64v96h-96v64h96v96z" />
<glyph unicode="&#xe92c;" glyph-name="connect-plus-simple" d="M480 640h64v-160h160v-64h-160v-160h-64v160h-160v64h160v160zM128 64h768v768h-768v-768zM192 768h640v-640h-640v640z" />
<glyph unicode="&#xe92d;" glyph-name="contact" d="M895.968 255.795v-255.795h-767.933v255.795c0 70.576 57.414 127.987 127.987 127.987h50.454c4.682-5.491 9.402-10.96 14.592-16.147 19.581-19.584 41.453-35.494 64.73-47.846h-129.773c-35.283 0-63.994-28.71-63.994-63.994v-191.802h639.939v191.802c0 35.283-28.71 63.994-63.994 63.994h-127.011c23.277 12.352 45.149 28.262 64.73 47.846 5.187 5.187 9.91 10.659 14.592 16.147h47.69c70.576 0 127.987-57.414 127.987-127.987h0.003zM660.445 707.011c81.085-81.085 81.082-213.030 0.006-294.125h-0.006c-39.277-39.283-91.51-60.918-147.062-60.918s-107.782 21.635-147.069 60.918c-81.085 81.085-81.085 213.037 0.006 294.125 81.091 81.091 213.030 81.091 294.125 0zM615.2 661.766c-28.074 28.067-64.944 42.102-101.814 42.102s-73.744-14.035-101.814-42.102c-56.138-56.144-56.138-147.488 0-203.632 27.197-27.197 63.357-42.17 101.814-42.17s74.618 14.973 101.808 42.17h0.006c56.138 56.144 56.138 147.488 0 203.632zM256.022 651.43c13.414 37.638 34.989 72.195 63.754 100.96 51.344 51.338 119.613 79.619 192.227 79.619s140.874-28.278 192.221-79.619c28.765-28.765 50.339-63.322 63.754-100.96v-171.651h127.987v176.16h-62.4c-15.795 53.072-44.291 101.891-84.096 141.696-63.424 63.43-147.763 98.365-237.466 98.365s-174.048-34.934-237.472-98.365c-39.805-39.805-68.298-88.624-84.096-141.696h-62.4v-176.16h127.987v171.651z" />
<glyph unicode="&#xe92e;" glyph-name="contextual-menu-horizontal" d="M768 384c-35.347 0-64 28.653-64 64s28.653 64 64 64c35.347 0 64-28.653 64-64s-28.653-64-64-64zM512 384c-35.347 0-64 28.653-64 64s28.653 64 64 64c35.347 0 64-28.653 64-64s-28.653-64-64-64zM192 448c0-35.347 28.654-64 64-64s64 28.653 64 64c0 35.347-28.654 64-64 64s-64-28.653-64-64z" />
<glyph unicode="&#xe92f;" glyph-name="contextual-menu-vertical" d="M576 704c0-35.346-28.653-64-64-64s-64 28.654-64 64c0 35.346 28.653 64 64 64s64-28.654 64-64zM576 448c0-35.347-28.653-64-64-64s-64 28.653-64 64c0 35.347 28.653 64 64 64s64-28.653 64-64zM512 128c35.347 0 64 28.653 64 64s-28.653 64-64 64c-35.347 0-64-28.653-64-64s28.653-64 64-64z" />
<glyph unicode="&#xe930;" glyph-name="contract" d="M767.907 387.568v-227.568h0.093v-63.942l-512.010-0.058v703.946h402.678l34.285-34.284 45.248 45.246-53.024 53.025h-493.178v-831.866l640-0.067v384h-0.102v35.558l-63.99-63.99zM320 736h256v-64h-256v64zM320 608h160v-64h-160v64zM384 480h-64v-64h64v64zM704 672.002l50.742 50.743c24.992 24.994 65.517 24.994 90.509 0l37.491-37.49c24.992-24.993 24.995-65.517 0-90.509l-50.742-50.742-45.254 45.254 50.742 50.742-37.491 37.49-50.742-50.745-45.254 45.256zM320 160v128l352 352 128-128-287.434-287.434-45.104 45.408 242.029 242.026-37.491 37.491-288-288v-37.491h32.333l30.474-64h-126.806z" />
<glyph unicode="&#xe931;" glyph-name="copy" d="M320 192v640h512v-640h-512zM384 768v-512h384v512h-384zM256 704v-576h448v-64h-512v640h64z" />
<glyph unicode="&#xe932;" glyph-name="cost-control" d="M191.99 767.946v-639.889h288.010l35.104-63.99h-387.104v767.866h461.178l146.72-146.723v-269.21h-63.99v242.714l-109.238 109.232h-370.678zM324.512 437.379h-34.957v32.026h30.858c-0.262 5.072-0.387 9.434-0.387 13.072 0 2.614 0.061 5.539 0.198 8.8h-30.669v32.019h33.795c5.072 27.469 15.158 50.704 30.256 69.712 22.784 28.509 52.726 42.768 89.834 42.768 21.082 0 40.48-6.048 58.189-18.16v12.112h42.381v-88.659h-45.693v3.51c0 13.286-4.762 24.147-14.259 32.621-9.514 8.461-21.747 12.685-36.72 12.685-17.184 0-31.856-5.824-44.029-17.472-12.173-11.661-20.669-28.019-25.482-49.117h98.621v-32.019h-102.531c-0.125-2.877-0.189-5.677-0.189-8.4 0-4.435 0.125-8.922 0.387-13.472h84.749v-32.032h-78.112c4.95-13.27 10.022-23.232 15.235-29.882 12.886-16.397 30.72-24.595 53.504-24.595 18.234 0 34.63 4.938 49.216 14.835 5.862 4.038 13.411 11.062 22.646 21.098l31.245-36.906c-11.974-14.058-24.47-24.419-37.494-31.056-19.258-10.147-41.654-15.235-67.174-15.235-33.069 0-60.077 8.662-81.037 25.984-20.96 17.312-35.082 42.57-42.381 75.763zM666.458 344.368c0 5.088 2.541 7.632 7.626 7.632h63.549c2.544 0 7.626-2.544 7.626-7.632l5.085-40.077c3.174-1.786 6.346-3.51 9.44-5.194l0.115-0.061c6.781-3.686 13.19-7.168 18.406-10.65l38.765 15.904c4.451 0 9.533 0 9.533-3.181l33.046-55.978c2.544-2.547 0-7.635-2.541-10.179l-33.046-26.080v-31.808l33.046-26.080c2.541-2.544 5.085-7.632 2.541-10.179l-33.046-55.978c0-3.181-5.082-3.181-9.533-3.181l-38.765 15.904c-5.216-3.482-11.642-6.973-18.426-10.659l-0.086-0.048c-3.091-1.68-6.282-3.411-9.45-5.197l-5.085-40.077c0-5.088-5.082-7.632-7.626-7.632h-63.549c-5.085 0-7.626 2.544-7.626 7.632l-8.262 40.077c-4.374 3.581-9.99 6.915-15.453 10.154-3.264 1.939-6.477 3.843-9.331 5.75l-40.672-15.904c-2.541 0-7.626 0-10.166 3.181l-30.506 55.978c-2.541 2.547 0 7.635 2.544 10.179l33.043 26.080v31.808l-33.043 26.080c-5.085 2.544-5.085 7.632-2.544 10.179l30.506 55.978c2.541 3.181 7.626 3.181 10.166 3.181l40.672-15.904c2.854 1.907 6.067 3.811 9.331 5.75 5.462 3.238 11.078 6.573 15.453 10.154l8.262 40.077zM753.52 191.696c0 27.99-20.97 48.982-46.39 48.982-27.962 0-48.934-20.992-48.934-48.982 0-25.443 20.973-46.435 48.934-46.435 25.421 0 46.39 20.992 46.39 46.435z" />
<glyph unicode="&#xe933;" glyph-name="coverage" d="M301.59 758.896c61.27 47.363 135.981 73.107 214.691 73.107 78.867 0 153.712-25.853 215.050-73.395l45.59 45.59c-73.661 59.446-164.65 91.802-260.64 91.802-95.837 0-186.685-32.259-260.282-91.52l45.59-45.584zM635.19 662.47l45.485 45.485c-44.515 37.408-101.834 60.051-164.394 60.051-62.4 0-119.6-22.499-164.067-59.734l45.53-45.53c32.678 25.754 73.795 41.264 118.538 41.264 44.906 0 86.173-15.61 118.909-41.536zM576 576c0-35.347-28.653-64-64-64s-64 28.653-64 64c0 35.347 28.653 64 64 64s64-28.653 64-64zM316.117 64h67.883v-64h-192v64h56.824l135.157 415.974 60.867-19.779-19.571-60.234 86.266-86.266 86.947 86.947-19.030 58.566 60.867 19.776 134.838-414.986h56.835v-64h-192v64h67.872l-87.187 268.33-63.885-63.888 96.048-96.051-45.254-45.254-96.051 96.051-96.854-96.858-45.254 45.254 96.854 96.858-63.206 63.206-86.964-267.648z" />
<glyph unicode="&#xe934;" glyph-name="credit-card" d="M896 157.898h-128v64h128v320h-768v-320h512v-64h-512c-35.29 0-64 28.71-64 64v448.001c0 35.29 28.71 64 64 64h768c35.29 0 64-28.71 64-64v-448.001c0-35.29-28.71-64-64-64zM128 605.898h768v64.001h-768v-64.001zM192 477.898v-64h288v64h-288zM480 349.898v-64h-160v64h160zM192.109 349.898v-64h63.786v64h-63.786z" />
<glyph unicode="&#xe935;" glyph-name="credit" d="M353.555 409.603h34.957c7.299-33.194 21.421-58.451 42.381-75.763 20.96-17.322 47.968-25.984 81.037-25.984 25.52 0 47.917 5.088 67.174 15.235 13.024 6.637 25.52 16.998 37.494 31.056l-31.245 36.906c-9.235-10.035-16.784-17.059-22.646-21.098-14.586-9.898-30.982-14.835-49.216-14.835-22.784 0-40.618 8.198-53.504 24.595-5.213 6.65-10.285 16.611-15.235 29.882h78.112v32.032h-84.749c-0.262 4.55-0.387 9.037-0.387 13.472 0 2.723 0.064 5.523 0.189 8.4h102.531v32.019h-98.621c4.813 21.098 13.309 37.456 25.482 49.117 12.173 11.648 26.845 17.472 44.029 17.472 14.973 0 27.206-4.224 36.72-12.685 9.498-8.474 14.259-19.334 14.259-32.621v-3.51h45.693v88.659h-42.381v-12.112c-17.709 12.112-37.107 18.16-58.189 18.16-37.107 0-67.050-14.259-89.834-42.768-15.098-19.008-25.184-42.243-30.256-69.712h-33.795v-32.019h30.669c-0.138-3.261-0.198-6.186-0.198-8.8 0-3.638 0.125-8 0.387-13.072h-30.858v-32.026zM512 64c-212.077 0-384 171.923-384 384s171.923 384 384 384c212.077 0 384-171.923 384-384s-171.923-384-384-384zM512 127.341c177.094 0 320.659 143.565 320.659 320.659s-143.565 320.66-320.659 320.66c-177.094 0-320.66-143.565-320.66-320.66s143.565-320.659 320.66-320.659z" />
<glyph unicode="&#xe936;" glyph-name="cup" d="M704 160h-608v-64h608v64zM195.201 224l-89.6 467.2c-6.4 38.4 22.4 76.8 64 76.8h467.199c41.6 0 70.4-38.4 64-76.8l-96-467.2h-409.599zM246.401 288h300.799l92.8 416h-479.999l86.4-416zM825.597 448h-115.197l54.4 256h124.797c48 0 80.003-51.2 57.603-92.8l-64-128c-9.6-22.4-32.003-35.2-57.603-35.2zM787.2 512h35.2l64 128h-73.6l-25.6-128z" />
<glyph unicode="&#xe937;" glyph-name="cutlery" d="M480 799.998h-64v-160.001h64v160.001zM544 607.997c0-17.6-14.4-32-32-32h-128c-17.6 0-32 14.4-32 32v192.001h-64v-192.001c0-52.8 43.2-96 96-96h32v-480h64v480h32c52.8 0 96 43.2 96 96v192.001h-64v-192.001zM937.28 708.798c-7.040 72-68.48 125.76-144 123.2-69.12-2.56-124.16-59.52-131.2-128.32l-9.28-93.121c-4.16-41.6 9.6-82.88 37.44-113.92 10.24-11.52 22.4-21.12 35.52-28.48 20.48-11.84 44.48-16.32 68.16-16.32h12.16c23.68 0 47.68 4.48 68.16 16.32 13.12 7.68 24.96 17.28 35.52 28.48 27.84 31.040 41.6 72.32 37.44 113.92l-9.92 98.241zM862.080 539.517c-32.32-35.52-92.16-35.52-124.48 0-16 17.92-23.68 40.64-21.12 64.64l9.92 98.241c3.84 37.44 34.88 65.6 74.56 65.6 37.44 0 68.8-28.16 72.32-65.6l9.92-98.241c2.56-24-5.12-46.72-21.12-64.64zM95.36 831.998h-31.36v-800.001h64v320h128v310.401c0 93.12-71.68 169.6-160.64 169.6zM192 415.997h-64v352.001c38.4-14.080 64-51.2 64-96v-256.001zM832 383.997h-64v-352h64v352z" />
<glyph unicode="&#xe938;" glyph-name="data-collection" d="M960 767.914v-63.984h-280.118l-63.987 63.984h344.106zM959.757 192.070v383.894c0 35.277-28.704 63.984-63.984 63.984h-242.678l-109.226 109.22c-12.083 12.083-28.154 18.746-45.245 18.746h-370.64c-35.277 0-63.984-28.704-63.984-63.984v-511.86c0-35.277 28.704-63.984 63.984-63.984h767.789c35.277 0 63.984 28.704 63.984 63.984zM498.63 703.93l109.226-109.22c12.083-12.083 28.147-18.746 45.238-18.746h242.678l0.045-383.894h-767.834v511.86h370.646z" />
<glyph unicode="&#xe939;" glyph-name="delete" d="M480 864c-17.674 0-32-14.327-32-32h-63.866c-59.664 0-109.799-40.787-124.044-96h68.592c10.896 18.68 30.998 31.358 54.048 31.869l257.136 0.141c23.664 0 44.374-12.886 55.482-32.010h68.566c-14.246 55.212-64.381 96-124.045 96h-63.869c0 17.673-14.326 32-32 32h-64zM192 672v-64h640v64h-640zM256.035 544v-383.901c0-70.746 57.35-128.099 128.099-128.099h255.734c70.746 0 128.099 57.35 128.099 128.099v383.901h-63.99l0.003-383.901c0-35.35-28.758-64.112-64.112-64.112h-255.734c-35.35 0-64.112 28.762-64.112 64.112v383.901h-63.987zM416 192v320h64v-320h-64zM544 512v-320h64v320h-64z" />
<glyph unicode="&#xe93a;" glyph-name="desktop-navigation" d="M703.504 159.725l-53.296 288.666 245.789-160.486-138.973 0.074-53.52-128.253zM640.57 148.106l-8.099 43.862-344.47 0.086v-12.912c0-28.237 22.97-51.2 51.2-51.2h305.091l-3.722 20.163zM608.822 320.054h-416.822v384.004h640v-297.931l64-41.789v403.719h-768v-512.001l492.653-0.070-11.83 64.067z" />
<glyph unicode="&#xe93b;" glyph-name="devices-mobile" d="M736 768c17.674 0 32 14.327 32 32 17.674 0 32-14.327 32-32v-384c0-17.674-14.326-32-32-32v-64c53.021 0 96 42.979 96 96v384c0 53.019-42.979 96-96 96h-192c-53.021 0-96-42.981-96-96v-128h64v128c0 17.673 14.326 32 32 32 0-17.673 14.326-32 32-32h128zM256 160v64c-17.673 0-32 14.326-32 32v384c0 17.673 14.327 32 32 32 0-17.673 14.327-32 32-32h128v96h-160c-53.019 0-96-42.981-96-96v-384c0-53.021 42.981-96 96-96zM512 160c17.674 0 32 14.326 32 32s-14.326 32-32 32c-17.674 0-32-14.326-32-32s14.326-32 32-32zM320 512v-384c0-53.021 42.979-96 96-96h192c53.021 0 96 42.979 96 96v384c0 53.021-42.979 96-96 96h-192c-53.021 0-96-42.979-96-96zM576 512c17.674 0 32 14.326 32 32 17.674 0 32-14.326 32-32v-384c0-17.674-14.326-32-32-32h-192c-17.674 0-32 14.326-32 32v384c0 17.674 14.326 32 32 32 0-17.674 14.326-32 32-32h128z" />
<glyph unicode="&#xe93c;" glyph-name="devices" d="M960 608.077v-384.176c0-35.312-28.726-64.035-64.029-64.035h-191.878v64.010l191.878 0.022v384.179h-288.426v-96.042h-64.029v96.042c0 35.306 28.726 64.029 64.029 64.029h288.426c35.306 0 64.029-28.726 64.029-64.029zM319.741 448h-191.712v320.151l468.771 0.080c1.27-0.544 4.307-4.403 4.307-10.762v-21.331h64.029v21.331c0 41.194-30.445 74.71-67.862 74.71h-469.456c-39.363 0-63.818-24.538-63.818-64.029v-384.183h255.741v64.032zM639.85 127.853v256.115c0 35.306-28.726 64.029-64.029 64.029h-128.061c-35.306 0-64.029-28.726-64.029-64.029v-256.115c0-35.312 28.726-64.035 64.029-64.035h128.061c35.306 0 64.029 28.726 64.029 64.035zM575.821 383.968l0.038-256.122-128.099 0.006v256.115h128.061z" />
<glyph unicode="&#xe93d;" glyph-name="dialogue" d="M960 704v-223.962c0-70.576-57.424-128-128.006-128l-0.016-128.006h-61.222l-66.755 66.762v90.518l63.994-63.997 0.013 98.726h63.994c35.286 0 64 28.714 64 64v223.958c0 35.286-28.714 64-64 64h-320c-23.581 0-43.994-12.966-55.098-32h-68.691c14.266 55.114 64.275 96 123.789 96h320c70.582 0 128-57.424 128-128zM280.803 519.763c15.692 20.813 40.41 30.637 72.602 30.637 24.909 0 45.571-5.818 61.347-18.102l0.035-0.029c15.699-12.413 23.61-29.091 23.61-49.44 0-18.186-6.182-33.091-18.954-43.898-6.47-5.581-18.093-12.618-34.291-21.056l-0.045-0.022c-8.032-4.109-12.157-7.408-13.734-9.645l-0.048-0.067c-1.398-1.926-2.586-5.539-2.586-11.824v-13.83h-50.691v13.683c0 14.95 2.918 27.402 9.696 36.432 3.162 4.336 6.925 7.997 11.283 10.938 4.182 2.915 11.885 7.165 22.73 12.662 9.658 4.912 15.571 9.36 18.573 13.133 2.797 3.517 4.4 8.15 4.4 14.368 0 7.267-2.586 12.294-7.613 15.933l-0.032 0.026c-5.888 4.317-13.981 6.771-24.838 6.771-14.614 0-24.093-4.451-29.936-12.266-2.716-3.706-5.044-10.051-6.416-19.805l-0.775-5.507h-50.088l0.589 6.941c1.504 17.722 6.412 32.541 15.182 43.968zM320.205 356.621c6.656 5.498 14.64 8.166 23.603 8.166 9.181 0 17.264-3.107 23.891-9.296l0.074-0.070c5.766-5.555 8.909-12.371 8.909-20.192 0-9.078-4.067-16.614-11.443-22.266-6.355-4.88-13.75-7.293-21.926-7.293-8.877 0-16.774 2.685-23.321 8.208l-0.103 0.086c-6.468 5.696-9.947 12.941-9.947 21.411 0 8.461 3.612 15.632 10.216 21.203l0.048 0.042zM640 544v-224c0-70.576-57.418-128-128-128l-131.155-0.374-127.632-127.626h-61.213v128c-70.582 0-128 57.424-128 128v224c0 70.576 57.418 128 128 128h320c70.582 0 128-57.424 128-128zM576 544c0 35.286-28.714 64-64 64h-320c-35.286 0-64-28.714-64-64v-224c0-35.286 28.714-64 64-64h64v-98.714l98.256 98.262 157.651 0.451c35.382 0 64.093 28.714 64.093 64v224z" />
<glyph unicode="&#xe93e;" glyph-name="digital-currency" d="M416 864h-64v-96h-96c-35.346 0-64-28.654-64-64v-96h-96v-64h160v160h288v64h-128v96zM608 704h160v-288h64v128h96v64h-96v96c0 35.346-28.653 64-64 64h-96v96h-64v-160zM768 352v-160h-288v-64h128v-96h64v96h96c35.347 0 64 28.653 64 64v96h96v64h-160zM416 192h-160v288h-64v-128h-96v-64h96v-96c0-35.347 28.654-64 64-64h96v-96h64v160zM368 401.603h34.957c7.299-33.194 21.421-58.451 42.381-75.763 20.96-17.322 47.968-25.984 81.037-25.984 25.52 0 47.917 5.088 67.174 15.235 13.024 6.637 25.52 16.998 37.494 31.056l-31.245 36.906c-9.235-10.035-16.784-17.059-22.646-21.098-14.586-9.898-30.982-14.835-49.216-14.835-22.784 0-40.618 8.198-53.504 24.595-5.213 6.65-10.285 16.611-15.235 29.882h78.112v32.032h-84.749c-0.262 4.55-0.387 9.037-0.387 13.472 0 2.723 0.064 5.523 0.189 8.4h102.531v32.019h-98.621c4.813 21.098 13.309 37.456 25.482 49.117 12.173 11.648 26.845 17.472 44.029 17.472 14.973 0 27.206-4.224 36.72-12.685 9.498-8.474 14.259-19.334 14.259-32.621v-3.51h45.693v88.659h-42.381v-12.112c-17.709 12.112-37.107 18.16-58.189 18.16-37.107 0-67.050-14.259-89.834-42.768-15.098-19.008-25.184-42.243-30.256-69.712h-33.795v-32.019h30.669c-0.138-3.261-0.198-6.186-0.198-8.8 0-3.638 0.125-8 0.387-13.072h-30.858v-32.026z" />
<glyph unicode="&#xe93f;" glyph-name="direction-60-degrees-horizontal" d="M928 576v64h-256v-64h192v-192h64v192zM800 467.2v44.8h-45.44l-192-192h-466.56v-64h466.56c16.96 0 33.28 6.72 45.12 18.88l192.32 192.32z" />
<glyph unicode="&#xe940;" glyph-name="direction-60-degrees-vertical-v2" d="M320 864v-256h64v192h192v64h-256zM492.8 736h-44.8v-45.44l192-192v-146.56h-192v-64h192v-256h64v466.56c0 16.96-6.72 33.28-18.88 45.12l-192.32 192.32z" />
<glyph unicode="&#xe941;" glyph-name="direction-60-degrees-vertical" d="M384 864h-64v-256h64v192h192v64h-192zM492.8 736h-44.8v-45.44l192-192v-466.56h64v466.56c0 16.96-6.72 33.28-18.88 45.12l-192.32 192.32z" />
<glyph unicode="&#xe942;" glyph-name="direction-90-degrees-left" d="M405.44 853.12l-180.799-181.12 180.799-181.12 45.44 45.44-135.999 135.68 135.999 135.68-45.44 45.44zM437.44 704l-32-32 32-32h202.56v-608h64v608c0 35.2-28.8 64-64 64h-202.56z" />
<glyph unicode="&#xe943;" glyph-name="direction-90-degrees-right" d="M523.2 853.12l180.8-181.12-180.8-181.12-45.44 45.44 136 135.68-136 135.68 45.44 45.44zM491.2 704l32-32-32-32h-202.561v-608h-64v608c0 35.2 28.8 64 64 64h202.561z" />
<glyph unicode="&#xe944;" glyph-name="direction-multi-direction" d="M602.538 682.931l-58.528 58.525v-349.59l-64.019 64.016v285.574l-58.528-58.525-45.264 45.264 135.802 135.808 135.802-135.808-45.264-45.264zM640.035 544.144v-64.019h82.656l-141.014-127.706c14.128-18.438 22.931-40.147 25.494-63.283l160.902 145.718v-82.765h64.019v192.054h-192.058zM525.254 320.074l-224.068 224.070h82.775v64.019h-192.052v-192.054h64.019v82.771l224.064-224.074v-242.806h64.019v242.806c0 14.33-5.965 32.886-18.758 45.267z" />
<glyph unicode="&#xe945;" glyph-name="direction-straight" d="M512 864l-180.8-180.8 45.12-45.12 135.68 135.68 135.68-135.68 45.12 45.12-180.8 180.8zM480 650.88v-618.88h64v618.88l-32 32-32-32z" />
<glyph unicode="&#xe946;" glyph-name="discount" d="M480 544c0 53.021-42.979 96-96 96s-96-42.979-96-96c0-53.021 42.979-96 96-96s96 42.979 96 96zM416 544c0-17.674-14.326-32-32-32s-32 14.326-32 32c0 17.674 14.326 32 32 32s32-14.326 32-32zM736 352c0 53.021-42.979 96-96 96s-96-42.979-96-96c0-53.021 42.979-96 96-96s96 42.979 96 96zM672 352c0-17.674-14.326-32-32-32s-32 14.326-32 32c0 17.674 14.326 32 32 32s32-14.326 32-32zM425.901 256h-73.901l224.003 384h73.901l-224.003-384zM128 832h768v-768h-768v768zM832 768h-640v-640h640v640z" />
<glyph unicode="&#xe947;" glyph-name="discover" d="M595.226 693.104l-0.342-196.090h-0.32l-0.147-90.387-165.168-123.469 0.326 206.218 101.427 75.818 0.138 80.007-152.698-114.142c-8.067-6.032-12.822-15.51-12.842-25.581l-0.454-286.218c-0.019-12.118 6.81-23.21 17.642-28.65 10.832-5.437 23.808-4.288 33.517 2.97l229.248 171.363c8.067 6.032 12.822 15.507 12.838 25.581l0.458 286.215c0.019 12.121-6.81 23.212-17.642 28.65s-23.808 4.289-33.517-2.968l-12.464-9.318zM512 384c35.347 0 64 28.653 64 64s-28.653 64-64 64c-35.347 0-64-28.653-64-64s28.653-64 64-64zM512 64c-212.077 0-384 171.923-384 384s171.923 384 384 384c212.077 0 384-171.923 384-384s-171.923-384-384-384zM512 128c176.73 0 320 143.27 320 320s-143.27 320-320 320c-176.73 0-320-143.27-320-320s143.27-320 320-320z" />
<glyph unicode="&#xe948;" glyph-name="document-pdf" d="M223.99 96.058h639.773v-63.99h-703.763v831.866h557.178l146.72-146.723v-557.21h-63.99v530.714l-109.238 109.232h-466.678v-703.889zM287.724 400.307v-176.307h30.242v65.146h23.548c48.688 0 73.034 18.368 73.034 55.104 0 20.16-7.213 35.219-21.635 45.181-5.898 4.064-12.63 6.893-20.202 8.486s-18.048 2.39-31.437 2.39h-53.549zM340.198 313.53h-22.233v61.677h23.548c28.208 0 42.314-10.118 42.314-30.362 0-20.877-14.544-31.315-43.629-31.315zM443.114 400.307v-176.307h49.366c11.555 0 21.757 0.915 30.602 2.749 14.822 3.027 27.491 9.123 38.010 18.288 18.090 15.699 27.136 38.093 27.136 67.178 0 18.486-3.706 34.346-11.117 47.574-8.768 15.539-21.795 26.694-39.088 33.469-12.032 4.701-27.174 7.050-45.421 7.050h-49.488zM491.286 249.101h-17.93v126.106h17.93c19.443 0 34.902-4.739 46.378-14.224 13.229-11.075 19.843-27.331 19.843-48.768 0-21.597-6.656-37.891-19.962-48.89-11.475-9.482-26.896-14.224-46.259-14.224zM620.739 400.307v-176.307h30.24v76.979h69.21v25.101h-69.21v49.126h84.867v25.101h-115.107z" />
<glyph unicode="&#xe949;" glyph-name="document-text" d="M223.99 96.058h639.773v-63.99h-703.763v831.866h557.178l146.72-146.723v-557.21h-63.99v530.714l-109.238 109.232h-466.678v-703.889zM320 288h384v-64h-384v64zM704 448h-384v-64h384v64z" />
<glyph unicode="&#xe94a;" glyph-name="document" d="M223.99 96.058h639.773v-63.99h-703.763v831.866h557.178l146.72-146.723v-557.21h-63.99v530.714l-109.238 109.232h-466.678v-703.889z" />
<glyph unicode="&#xe94b;" glyph-name="documents" d="M639.93 64h-447.763v608.054l333.094-0.688 114.672-114.259v-493.11l-0.003 0.003zM256.122 127.955h319.853v402.598l-77.197 76.909-242.656 0.512v-480.019zM717.165 831.293l-333.094 0.707v-96.202h63.955v32.115l242.656-0.525 77.197-76.896v-402.595h-64.029v-63.955h127.984v493.107l-114.669 114.243z" />
<glyph unicode="&#xe94c;" glyph-name="domain" d="M832 448c0 33.446-5.133 65.696-14.65 96h-122.317c5.93-31.443 8.966-63.498 8.966-95.907 0-9.283-0.25-18.538-0.749-27.757l-69.082 42.246c-0.851 27.523-4.125 54.726-9.712 81.418h-224.848c-6.611-31.44-10.006-63.574-10.006-96.093 0-32.467 3.37-64.538 9.936-95.907h181.533l12.618-64h-175.99c20.662-57.315 52.368-111.344 93.936-160h0.365c38.442 0 75.299 6.778 109.443 19.203l12.506-63.434c-38.314-12.822-79.322-19.77-121.949-19.77-212.077 0-384 171.923-384 384s171.923 384 384 384c212.077 0 384-171.923 384-384 0-46.163-8.147-90.426-23.078-131.427l-55.952 34.218c9.763 30.656 15.030 63.318 15.030 97.21zM789.19 608c-40.022 69.183-105.2 121.993-183.024 145.921 31.613-45.669 56.026-94.699 72.56-145.921h110.464zM512.362 768h-0.451c-41.6-48.659-73.357-102.699-94.077-160h188.464c-20.662 57.316-52.368 111.344-93.936 160zM418.054 753.988c-77.923-23.895-143.186-76.739-183.244-145.988h110.559c16.573 51.231 41.030 100.292 72.685 145.988zM206.65 544c-9.518-30.304-14.65-62.554-14.65-96s5.131-65.696 14.65-96h122.314c-5.93 31.443-8.964 63.498-8.964 95.907 0 32.461 3.054 64.576 9.019 96.093h-122.368zM234.81 288c40.020-69.181 105.196-121.99 183.020-145.92-31.613 45.67-56.026 94.698-72.56 145.92h-110.46zM640 383.997l40.963-207.805c0 0 0 0.003 0 0l13.082-66.381c0-0.003 0.003 0 0 0l15.344-77.811 69.677 156.39 180.934-0.090-320 195.696z" />
<glyph unicode="&#xe94d;" glyph-name="dongle" d="M640.128 767.987v64.013c141.094 0 255.882-114.787 255.882-255.882h-64.013c0 105.795-86.074 191.869-191.869 191.869zM758.237 576.122h-54.131l-63.978 63.974v54.134c65.123 0 118.109-52.986 118.109-118.109zM476.739 608.038l-271.527-271.53 46.096-46.096c1.086-0.947 2.148-1.942 3.183-2.976l90.51-90.509c1.034-1.037 2.029-2.099 2.976-3.184l38.253-38.253 271.53 271.53-136.861 136.861 45.254 45.254 136.861-136.861c24.995-24.995 24.995-65.517 0-90.509l-271.53-271.53c-23.67-23.674-61.274-24.925-86.419-3.754l-54.793-54.794c-24.994-24.995-65.516-24.995-90.51 0l-90.509 90.509c-24.994 24.992-24.994 65.517 0 90.509l54.626 54.627-3.922 3.92c-24.994 24.995-24.994 65.517 0 90.512l271.528 271.527c24.995 24.994 65.517 24.994 90.512 0l0.022-0.024-45.254-45.254-0.026 0.022zM209.134 242.080l-54.626-54.627 90.51-90.509 54.626 54.624-90.509 90.512z" />
<glyph unicode="&#xe94e;" glyph-name="download" d="M511.914 383.747l-243.174 243.037 45.264 45.21 197.926-197.827 198.074 197.834 45.251-45.216-243.341-243.037zM768 383.821v-127.882h-63.99v-63.939h127.99v191.821h-64zM640.032 255.939h-384.032v127.882h-64v-191.821h448.032v63.939z" />
<glyph unicode="&#xe94f;" glyph-name="eco" d="M960 672v224h-448c-85.747-0.16-169.648-24.924-241.737-71.353-72.091-46.429-129.342-112.571-164.957-190.573-35.615-78-48.096-164.586-35.962-249.469 12.134-84.886 48.374-164.506 104.417-229.405l-100.48-100.48 45.44-45.44 100.48 100.48c64.9-56.042 144.52-92.282 229.404-104.416 84.886-12.134 171.469 0.346 249.472 35.962 78 35.613 144.144 92.864 190.573 164.957 46.429 72.090 71.194 155.99 71.35 241.738v96h-306.88l242.88 242.88v-114.88h64zM850.88 832l-242.88-242.88v242.88h242.88zM544 832v-306.88l-192-192v463.36c50.195 23.102 104.746 35.213 160 35.52h32zM128.001 448c-0.016 60.973 14.487 121.072 42.31 175.328s68.166 101.104 117.69 136.672v-490.88l-68.8-68.8c-58.979 69.034-91.327 156.883-91.2 247.68zM512 64c-90.797-0.128-178.646 32.221-247.678 91.2l68.798 68.8h490.24c-35.504-49.437-82.25-89.725-136.387-117.546-54.134-27.818-114.106-42.368-174.973-42.454zM896 480v-32c0.051-55.293-12.077-109.92-35.52-160h-463.36l192 192h306.88z" />
<glyph unicode="&#xe950;" glyph-name="edit" d="M754.742 818.745l-50.742-50.743 45.254-45.255 50.742 50.743 37.491-37.49-50.742-50.744 45.254-45.255 50.742 50.744c24.995 24.994 24.992 65.516 0 90.509l-37.491 37.49c-24.992 24.994-65.517 24.994-90.509 0zM128 192v-128h126.807l-30.474 64h-32.333v37.491l480 479.999 37.491-37.49-434.027-434.026 45.102-45.408 479.434 479.434-128 128-544-544z" />
<glyph unicode="&#xe951;" glyph-name="electricity-plug" d="M352 800h-128v-192h-160v-64h160v-64h128v-64h-128v-64h-160v-64h160v-192h128c195.2 0 352 156.8 352 352s-156.8 352-352 352zM352 160h-64v192h128v192h-128v192h64c160 0 288-128 288-288s-128-288-288-288zM764.8 480c0-9.6 0-22.4 0-32s0-22.4 0-32h195.2v64h-195.2z" />
<glyph unicode="&#xe952;" d="M642.656 768h-578.656v-640h896v464.89c-18.467-16.528-40.154-29.536-64-37.965v-317.677l-169.376 169.376-45.251-45.251 169.376-169.376h-677.498l169.376 169.376-45.251 45.251-169.376-169.376v433.763l384-295.389 240.954 185.354c-20.723 9.373-39.485 22.32-55.501 38.054l-185.453-142.656-321.917 247.626h452.573c-1.747 10.407-2.656 21.097-2.656 32s0.909 21.593 2.656 32z" />
<glyph unicode="&#xe953;" d="M832 608c-70.691 0-128 57.308-128 128s57.309 128 128 128c70.691 0 128-57.308 128-128s-57.309-128-128-128zM832 704c17.674 0 32 14.327 32 32s-14.326 32-32 32c-17.674 0-32-14.327-32-32s14.326-32 32-32z" />
<glyph unicode="&#xe954;" glyph-name="email-read" d="M512 892.188l-448-344.613v-543.763h896v543.763l-448 344.613zM861.517 542.579l-189.485-189.491 51.152-39.347 172.816 172.826v-385.76l-384 295.389-384-295.395v385.76l172.816-172.826 51.152 39.347-189.485 189.491 349.517 268.863 349.517-268.856zM833.917 67.814h-643.834l321.917 247.626 321.917-247.626z" />
<glyph unicode="&#xe955;" glyph-name="email-unread" d="M64 768v-640h896v640h-896zM726.624 406.624l-45.251-45.251 169.376-169.376h-677.498l169.376 169.376-45.251 45.251-169.376-169.376v433.763l384-295.389 384 295.389v-433.763l-169.376 169.376zM190.083 704h643.834l-321.917-247.626-321.917 247.626z" />
<glyph unicode="&#xe956;" glyph-name="error-filled" d="M512 832c212.077 0 384-171.923 384-384s-171.923-384-384-384c-212.077 0-384 171.923-384 384s171.923 384 384 384zM480 640v-256h64v256h-64zM480 320.528v-64.528h64v64.528h-64z" />
<glyph unicode="&#xe957;" glyph-name="error-outline" d="M480 288v64.528h64v-64.528h-64zM480 384v224h64v-224h-64zM128 448c0-212.077 171.923-384 384-384s384 171.923 384 384c0 212.077-171.923 384-384 384s-384-171.923-384-384zM191.34 448c0 177.094 143.565 320.66 320.66 320.66s320.659-143.565 320.659-320.66c0-177.094-143.565-320.659-320.659-320.659s-320.66 143.565-320.66 320.659z" />
<glyph unicode="&#xe958;" glyph-name="example-english" d="M314.656 447.907h119.376c-0.314 19.792-2.397 35.414-6.25 46.874-3.75 11.459-10.157 21.354-19.219 29.686-13.958 13.021-32.189 19.533-54.688 19.533-24.582 0-44.167-7.136-58.75-21.405-15.417-15.21-23.125-35.574-23.125-61.094 0-25.312 7.76-45.574 23.281-60.781 15.104-14.794 35.676-22.189 61.717-22.189 13.648 0 26.253 1.667 37.814 5.002 11.562 3.437 24.010 9.114 37.344 17.030l-18.438 30.31c-11.251-6.352-20.989-10.781-29.219-13.28-8.227-2.499-17.187-3.75-26.874-3.75-8.541 0-15.626 1.2-21.251 3.594-5.626 2.499-10.416 6.458-14.374 11.875-3.333 4.48-5.781 10.678-7.344 18.595zM353.251 510.406c20.832 0 33.386-10.47 37.654-31.405h-75.78c5.208 20.934 17.918 31.405 38.126 31.405zM451.155 429.782v-46.406h43.283v46.406h-43.283zM630.624 400.093c-7.498-6.352-14.739-10.832-21.718-13.437-6.979-2.499-15.155-3.75-24.531-3.75-21.146 0-38.384 6.979-51.718 20.938-13.645 14.374-20.467 33.75-20.467 58.125s6.509 44.064 19.53 59.062c13.437 15.312 31.251 22.97 53.437 22.97 10.522 0 19.427-1.616 26.72-4.845 7.395-3.123 14.947-8.592 22.656-16.406v16.72h58.749v-35.002h-22.029v-105.779c0-17.709-1.302-31.302-3.907-40.781-4.166-15.104-12.499-26.355-25.002-33.75-12.394-7.395-29.216-11.094-50.467-11.094-24.064 0-41.251 3.958-51.562 11.875-10.208 7.917-15.574 21.354-16.096 40.314h37.658c1.146-7.085 3.853-11.981 8.125-14.688 4.272-2.71 11.562-4.064 21.875-4.064 9.062 0 16.25 1.302 21.562 3.907 5.312 2.499 9.427 6.666 12.346 12.499 3.229 6.563 4.842 17.030 4.842 31.408v5.779zM590.624 508.998c-11.248 0-20.259-4.269-27.030-12.81-6.771-8.544-10.157-19.949-10.157-34.221 0-13.229 3.126-23.645 9.376-31.248 6.979-8.544 16.406-12.813 28.282-12.813 12.186 0 21.978 4.218 29.373 12.656 6.771 7.811 10.157 18.227 10.157 31.248 0 13.75-3.386 24.845-10.157 33.283-7.395 9.27-17.341 13.904-29.843 13.904zM704 429.782v-46.406h43.28v46.406h-43.28zM128 64h768v768h-768v-768zM192 768h640v-640h-640v640z" />
<glyph unicode="&#xe959;" glyph-name="example-german" d="M442.374 324.518v69.078h33.907v-4.81c0-8.938 3.043-16.371 9.13-22.298 8.307-8.16 20.093-12.24 35.357-12.24 12.266 0 21.686 2.768 28.253 8.307 6.57 5.536 9.856 12.822 9.856 21.859 0 9.523-4.445 17.149-13.331 22.88-5.603 3.597-19.226 8.502-40.864 14.72-15.261 4.374-25.936 8.064-32.022 11.078-19.61 9.616-29.414 25.795-29.414 48.528 0 19.92 6.182 35.414 18.547 46.493 11.786 10.589 27.29 15.885 46.512 15.885 9.082 0 16.81-1.021 23.184-3.059 6.378-1.946 13.091-5.443 20.144-10.496v9.037h31.443v-66.163h-33.907v2.621c0 10.493-3.382 18.752-10.144 24.778-6.762 6.022-15.987 9.034-27.677 9.034-9.178 0-16.47-2.186-21.878-6.557-5.315-4.371-7.971-10.301-7.971-17.779 0-8.454 3.866-15.011 11.594-19.677 5.312-3.302 17.050-7.286 35.21-11.949 14.49-3.693 25.552-7.338 33.184-10.931 7.728-3.498 14.294-7.968 19.706-13.408 10.627-10.784 15.939-25.018 15.939-42.701 0-20.016-6.038-35.853-18.112-47.51-13.331-12.826-31.974-19.238-55.933-19.238-17.293 0-33.712 4.518-49.267 13.555v-9.037h-31.443zM276.431 357.165v149.67h-20.431v32.646h92.736c47.142 0 70.714-17.827 70.714-53.485 0-20.694-8.842-35.901-26.518-45.616 10.24-3.402 18.355-8.646 24.342-15.741 8.019-9.52 12.029-21.472 12.029-35.853 0-20.694-7.293-36.579-21.882-47.654-14.49-11.078-35.258-16.614-62.307-16.614h-89.114v32.646h20.431zM314.105 454.662h27.677c12.944 0 22.314 1.699 28.109 5.101 7.536 4.47 11.302 11.418 11.302 20.842 0 8.451-3.091 14.96-9.274 19.526-6.086 4.566-14.877 6.851-26.371 6.851h-31.444v-52.32zM314.105 357.018h22.461c17.29 0 29.75 2.042 37.382 6.122 10.432 5.536 15.651 14.525 15.651 26.96 0 10.787-3.914 19.043-11.738 24.778-7.824 5.731-19.174 8.598-34.051 8.598h-29.706v-66.458zM628.432 506.835v-149.67h-20.432v-32.646h86.65v32.646h-27.094v46.051h18.691c59.216 0 88.826 22.445 88.826 67.331 0 24.483-8.646 42.896-25.939 55.235-7.245 5.149-15.456 8.698-24.634 10.64-9.078 2.038-21.878 3.059-38.397 3.059h-78.102v-32.646h20.432zM683.93 434.842h-16.374v71.994h18.112c33.133 0 49.702-11.754 49.702-35.267 0-24.483-17.149-36.726-51.44-36.726zM128 832h768v-768h-768v768zM832 768h-640v-640h640v640z" />
<glyph unicode="&#xe95a;" glyph-name="exclamation-mark" d="M480 768h64v-416h-64v416zM512 144c26.509 0 48 21.491 48 48s-21.491 48-48 48c-26.509 0-48-21.491-48-48s21.491-48 48-48z" />
<glyph unicode="&#xe95b;" glyph-name="exit" d="M224 768c-17.673 0-32-14.327-32-32v-576c0-17.674 14.327-32 32-32h320v64h-288v512h288v64h-320zM864 448l-212.8 212.799-45.12-45.119 167.68-167.68-167.68-167.68 45.12-45.12 212.8 212.8zM320 416h330.88l32 32-32 32h-330.88v-64z" />
<glyph unicode="&#xe95c;" glyph-name="expenses" d="M960 255.997l-120.784-120.768-45.568 45.568 43.21 43.206h-292.998v63.99h293.002l-43.213 43.216 45.568 45.568 120.784-120.781zM671.776 128.058h-479.786v639.889h370.678l109.238-109.232v-306.701h63.99v333.197l-146.72 146.723h-461.178v-767.866h607.763v95.952h-63.99v-31.965l0.003 0.003zM289.555 437.379h34.957c7.299-33.194 21.421-58.451 42.381-75.763 20.96-17.322 47.968-25.984 81.037-25.984 25.52 0 47.917 5.088 67.174 15.235 13.024 6.637 25.52 16.998 37.494 31.056l-31.245 36.906c-9.235-10.035-16.784-17.059-22.646-21.098-14.586-9.898-30.982-14.835-49.216-14.835-22.784 0-40.618 8.198-53.504 24.595-5.213 6.65-10.285 16.611-15.235 29.882h78.112v32.032h-84.749c-0.262 4.55-0.387 9.037-0.387 13.472 0 2.723 0.064 5.523 0.189 8.4h102.531v32.019h-98.621c4.813 21.098 13.309 37.456 25.482 49.117 12.173 11.648 26.845 17.472 44.029 17.472 14.973 0 27.206-4.224 36.72-12.685 9.498-8.474 14.259-19.334 14.259-32.621v-3.51h45.693v88.659h-42.381v-12.112c-17.709 12.112-37.107 18.16-58.189 18.16-37.107 0-67.050-14.259-89.834-42.768-15.098-19.008-25.184-42.243-30.256-69.712h-33.795v-32.019h30.669c-0.138-3.261-0.198-6.186-0.198-8.8 0-3.638 0.125-8 0.387-13.072h-30.858v-32.026z" />
<glyph unicode="&#xe95d;" glyph-name="face-recognition" d="M128 832h128v-64h-64v-64h-64v128zM672 608.022c0 88.224-71.776 160.006-160 160.006s-160-71.782-160-160.006c0-88.224 71.776-160 160-160s160 71.776 160 160zM608 608.022c0-52.938-43.062-96-96-96s-96 43.062-96 96c0 52.937 43.062 96.006 96 96.006s96-43.069 96-96.006zM683.693 464.394c-17.587-20.992-38.944-38.685-63.014-52.106h5.35c42.995 0 77.974-32.576 77.974-72.611v-83.674h-320.003v-64h384v147.674c0 55.562-34.704 103.395-84.307 124.717zM403.325 412.288c-23.776 13.258-44.874 30.704-62.336 51.36-50.080-21.667-84.989-69.021-84.989-123.971v-147.674h64v147.674c0 40.038 36.742 72.611 81.907 72.611h1.418zM896 64v128h-64v-64h-64v-64h128zM896 832h-128v-64h64v-64h64v128zM128 64v128h64v-64h64v-64h-128z" />
<glyph unicode="&#xe95e;" glyph-name="feedback" d="M395.555 279.11v-151.11l146.669 151.11h218.666c44.182 0 80 35.818 80 80v328.89c0 44.183-35.818 80-80 80h-489.778c-44.183 0-80-35.817-80-80v-8h-64v8c0 79.529 64.471 144 144 144h489.778c79.53 0 144-64.471 144-144v-328.89c0-79.53-64.47-144-144-144h-191.597l-154.432-159.11h-83.306v159.11h-60.444c-79.529 0-144 64.47-144 144v240.89h64v-240.89c0-44.182 35.817-80 80-80h124.444zM480 480h64v200h-64v-200zM480 376h64v64h-64v-64z" />
<glyph unicode="&#xe95f;" glyph-name="female" d="M512 639.2c-70.4 0-127.2 56.798-127.2 127.198s56.8 128 127.2 128c70.4 0 127.2-56.8 127.2-127.2s-56.8-127.998-127.2-127.998zM512 830.398c-35.2 0-64-28.8-64-64s28.8-64 64-64c35.2 0 64 28.8 64 64s-28.8 64-64 64zM640 415.2h-68l72-191.2h-100v-160h-64v160h-100l72 191.2h-68l-96-255.2h128v-160h192v160h128l-96 255.2zM804.8 287.2l-88.8 222.4c-24 59.2-80 97.6-144 97.6h-120c-64 0-120-38.4-144-97.6l-88.8-222.4h68.8l79.2 199.2c13.6 35.2 47.2 57.6 84.8 57.6h120c37.6 0 71.2-22.4 84.8-57.6l79.2-199.2h68.8z" />
<glyph unicode="&#xe960;" glyph-name="fiber-optic" d="M256 224c35.346 0 64 28.653 64 64v320c0 35.346-28.654 64-64 64h-192v-64h192v-320h-192v-64h192zM384 416h288v64h-288v-64zM736 288h-352v64h352v-64zM384 544h352v64h-352v-64zM896 416c-17.674 0-32 14.326-32 32s14.326 32 32 32c17.674 0 32-14.326 32-32s-14.326-32-32-32zM736 448c0-17.674 14.326-32 32-32s32 14.326 32 32c0 17.674-14.326 32-32 32s-32-14.326-32-32zM832 288c-17.674 0-32 14.326-32 32s14.326 32 32 32c17.674 0 32-14.326 32-32s-14.326-32-32-32zM800 576c0-17.674 14.326-32 32-32s32 14.326 32 32c0 17.674-14.326 32-32 32s-32-14.326-32-32z" />
<glyph unicode="&#xe961;" glyph-name="filter" d="M128 704h768v-64h-768v64zM256 480h512v-64h-512v64zM640 256h-256v-64h256v64z" />
<glyph unicode="&#xe962;" glyph-name="fingerprint" d="M204.106 276.31c27.48-106.419 111.517-188.278 217.593-211.958 16.995-2.544 32.922 9.014 36 26.128v4.518c1.645 15.114-8.259 29.043-22.938 32.259-82.778 18.333-148.391 82.16-169.805 165.181-3.593 14.435-17.284 23.862-31.86 21.939l-4.153-0.003c-17.239-3.565-28.359-20.608-24.838-38.064zM553.734 97.581v-4.195c0.035-0.195 0.074-0.387 0.112-0.582 0.045-0.227 0.090-0.454 0.141-0.685 3.795-17.395 20.797-28.384 37.978-24.541 8.605 2.582 16.886 5.162 25.168 8.387 1.139 0.445 2.25 0.96 3.325 1.542 14.582 7.901 20.086 26.275 12.288 41.046l-1.914 3.546c-6.822 13.53-22.637 19.658-36.637 14.195-6.371-2.582-12.742-4.518-19.114-6.451-13.955-4.013-22.989-17.667-21.347-32.262zM713.808 192.813l2.547-2.902v-0.97c12.346-12.086 31.933-12.086 44.282 0 45.984 52.979 71.35 121.098 71.363 191.635v129.046c-0.093 13.29-1.158 26.554-3.184 39.683-0.163 1.104-0.387 2.195-0.669 3.277-4.224 16.189-20.614 25.846-36.605 21.565h-4.141c-14.083-3.885-23.277-17.574-21.664-32.262 1.734-10.662 2.589-21.456 2.547-32.262v-129.046c0.045-54.394-19.302-106.976-54.477-148.080-9.872-11.341-9.872-28.346 0-39.683zM475.363 191.782c12.429-2.95 25.146-4.464 37.914-4.515 87.974 0 159.293 72.221 159.29 161.306v25.488l-0.006 0.653c-0.352 16.387-13.757 29.382-29.939 29.027h-4.141c-16.416-0.176-29.632-13.702-29.629-30.326v-24.842c0-53.45-42.79-96.784-95.574-96.784-6.755-0.048-13.491 0.71-20.074 2.259-13.539 3.568-27.68-3.053-33.77-15.808l-1.91-3.872c-0.864-1.683-1.568-3.45-2.102-5.267-4.669-15.885 4.259-32.589 19.942-37.318zM335.75 315.674c9.411-13.776 28.064-17.216 41.667-7.686l4.458 1.613c11.35 8.131 15.587 23.162 10.195 36.134-4.221 11.117-6.384 22.931-6.371 34.842v66.784c-0.006 0.557-0.022 1.117-0.061 1.674-1.053 16.717-15.29 29.398-31.795 28.33h-2.554c-16.362-0.179-29.482-13.757-29.306-30.326v-66.461c-0.131-20.064 3.434-39.974 10.515-58.717 0.842-2.182 1.936-4.259 3.251-6.186zM192.057 439.549c1.058-16.717 15.297-29.395 31.803-28.323l5.097-0.32 0.644 0.006c16.184 0.355 29.016 13.93 28.665 30.317v68.397c-0.318 40.634 10.37 80.582 30.902 115.498 7.525 12.998 4.237 29.645-7.647 38.713l-3.185 2.58c-0.918 0.718-1.877 1.38-2.87 1.986-14.177 8.628-32.575 3.984-41.094-10.373-27.336-44.58-41.998-95.931-42.371-148.404v-68.72c0.009-0.451 0.028-0.906 0.057-1.357zM389.984 572.272l5.098 0.003c13.754-3.085 27.875 3.344 34.726 15.808 19.744 36.448 60.266 56.058 100.672 48.717 13.696-2.662 27.507 4.004 34.090 16.453l1.91 4.194c0.81 1.691 1.459 3.456 1.939 5.272 4.186 15.834-5.098 32.107-20.733 36.345-11.293 2.577-22.832 3.876-34.41 3.871-60.512 0.243-115.936-34.257-143.043-89.044-0.765-1.686-1.373-3.44-1.814-5.238-3.965-16.077 5.69-32.365 21.565-36.381zM649.773 739.389c29.168-15.789 54.605-37.804 74.547-64.524h0.637c8.355-11.467 23.469-15.496 36.317-9.679l3.504 2.258c1.050 0.591 2.064 1.245 3.037 1.961 13.232 9.75 16.15 28.515 6.522 41.914-25.235 35.124-57.885 64.109-95.574 84.85-15.923 7.312-34.694 0.255-42.051-15.808v-3.871c-5.699-13.93-0.054-29.965 13.062-37.101zM353.984 744.55l3.504-3.226c9.222-11.573 25.587-14.219 37.914-6.131 36.509 21.869 78.336 32.934 120.742 31.938 14.845-0.092 27.36 11.189 28.992 26.132 0.47 2.34 0.685 4.724 0.637 7.112-0.355 17.814-14.902 31.963-32.496 31.602-53.414 0.661-105.907-14.112-151.328-42.585-14.406-10.17-17.968-30.227-7.965-44.843zM514.867 539.949h-4.458c-16.365 0-29.629-13.43-29.629-30v-130.662c0-16.57 13.264-30.003 29.629-30.003h4.458c16.365 0 29.629 13.434 29.629 30.003v130.662c0 16.566-13.264 30-29.629 30zM645.808 499.626c16.045 1.696 27.878 15.962 26.762 32.259-2.022 14.074-5.766 27.837-11.149 40.976-0.496 1.030-1.046 2.035-1.648 3.008-9.341 15.101-28.998 19.677-43.91 10.218l-3.504-2.579c-10.915-9.034-14.675-24.253-9.238-37.424 2.579-6.342 4.499-12.938 5.731-19.68 1.514-16.294 15.766-28.272 31.859-26.778h5.098z" />
<glyph unicode="&#xe963;" glyph-name="firewall" d="M660.419 669.676c0.298-3.112 0.63-6.241 0.995-9.385 2.698-23.107 7.299-47.158 14.493-71.404-29.587-36.819-50.611-68.835-65.485-97.59-27.36-52.896-34.422-95.744-34.422-139.296 0-41.184 13.763-81.318 39.917-110.742 25.632-28.832 64.768-49.258 120.083-49.258s94.451 20.426 120.083 49.258c26.154 29.424 39.917 69.558 39.917 110.742 0 37.965-9.286 62.851-22.288 82.746-12.317 18.848-28.173 33.882-47.741 52.442-2.614 2.48-5.318 5.040-8.067 7.664-22.432 21.414-47.651 46.877-66.701 82.957-6.915 13.094-12.886 27.322-17.699 42.976-3.962 15.766-6.72 31.489-8.518 46.923-2.8 23.978-3.251 47.053-2.342 68.158 2.221 2.242 4.464 4.496 6.73 6.761l54.627 54.627v-77.255c0-51.549 10.061-86.29 23.798-112.309 13.949-26.419 32.73-45.955 54.298-66.544 2.499-2.384 5.066-4.81 7.686-7.283 19.053-17.994 40.774-38.506 57.504-64.109 20-30.605 32.714-67.718 32.714-117.754 0-54.819-18.237-110.685-56.083-153.261-38.368-43.165-95.232-70.739-167.917-70.739s-129.549 27.574-167.917 70.739c-37.846 42.576-56.083 98.442-56.083 153.261 0 52.448 8.938 105.597 41.578 168.701 22.838 44.157 56.995 92.63 106.842 148.975zM512 640h-160v-96h96v-64h-224v-96h224v-64h-96v-96h128v-64h-416v64h224v96h-224v64h96v96h-96v64h224v96h-224v64h448v-64zM672.502 472.195c-19.181-38.032-32.502-79.651-32.502-120.195 7.725-130.288 192-125.555 192 0 0 39.402-22.531 62.634-50.083 88.762-9.027 8.56-21.539 20.826-33.584 35.277-15.066 18.077-29.398 39.574-35.264 61.523-14.586-19.677-28.698-41.834-40.566-65.366zM737.878 394.32c14.166-13.434 21.315-20.998 25.712-27.779 3.13-4.829 4.41-8.55 4.41-14.541 0-14.541-4.781-20.992-8.333-24.272-4.541-4.192-12.102-7.555-21.574-7.674-9.411-0.118-17.533 3.021-22.915 7.683-4.323 3.75-9.882 10.979-11.162 26.253 0.31 19.136 5.059 39.894 13.066 61.011 7.949-8.365 15.219-15.389 20.797-20.682z" />
<glyph unicode="&#xe964;" glyph-name="first-aid-station" d="M896 64h-768v768h768v-768zM192 128h640v640h-640v-640zM608 192h-192v160h-160v192h160v160h192v-160h160v-192h-160v-160zM480 256h64v160h160v64h-160v160h-64v-160h-160v-64h160v-160z" />
<glyph unicode="&#xe965;" glyph-name="first-aid" d="M735.93 640v95.901c0 70.746-57.35 128.099-128.099 128.099h-191.734c-70.746 0-128.099-57.35-128.099-128.099v-95.901h63.99l-0.003 95.901c0 35.35 28.758 64.112 64.112 64.112h191.734c35.35 0 64.112-28.762 64.112-64.112v-95.901h63.987zM480 544h64v-96h96v-64h-96v-96h-64v96h-96v64h96v96zM736 416c0 123.712-100.288 224-224 224s-224-100.288-224-224c0-123.712 100.288-224 224-224s224 100.288 224 224zM672 416c0-88.365-71.635-160-160-160s-160 71.635-160 160c0 88.365 71.635 160 160 160s160-71.635 160-160zM928 576v-384c0-70.576-57.418-128-128-128h-576c-70.582 0-128 57.424-128 128v384c0 70.576 57.418 128 128 128v-64c-35.286 0-64-28.714-64-64v-384c0-35.286 28.714-64 64-64h576c35.286 0 64 28.714 64 64v384c0 35.286-28.714 64-64 64v64c70.582 0 128-57.424 128-128z" />
<glyph unicode="&#xe966;" glyph-name="forecast" d="M353.702 800h-63.254v-86.025h63.254v86.025zM177.983 641.36l-60.829 60.829 44.727 44.727 60.829-60.829-44.727-44.727zM64 573.552h86.025v-63.254h-86.025v63.254zM465.978 641.486l-44.726 44.727 60.829 60.829 44.726-44.727-60.829-60.829zM265.167 549.315c3.364 29.738 27.111 53.050 56.907 55.862 28.509-0.173 53.142-19.955 59.459-47.757l47.757 47.757c-26.198 45.655-78.256 69.924-130.067 60.637s-92.197-50.128-100.906-102.038c-8.708-51.914 16.141-103.696 62.085-129.382l47.756 47.757c-28.416 9.398-46.356 37.424-42.992 67.165zM896 800v-608h-64v544h-64v-544h-64v608h192zM448 544h192v-352h-64v288h-64v-288h-64v352zM384 384v-192h-64v128h-64v-128h-64v192h192zM192 128h704v-64h-704v64z" />
<glyph unicode="&#xe967;" glyph-name="free-units-ok" d="M128 448c0 212.077 171.923 384 384 384v-64c-176.73 0-320-143.27-320-320s143.27-320 320-320c176.73 0 320 143.27 320 320h64c0-212.077-171.923-384-384-384s-384 171.923-384 384zM352 466.819l160.006-160.013 357.789 357.795-45.245 45.245-312.544-312.538-114.762 114.755-45.245-45.245zM914.749 800l45.251-45.251-45.251-45.251-45.251 45.251 45.251 45.251z" />
<glyph unicode="&#xe968;" glyph-name="gaming" d="M160 736c-15.503 0-28.777-11.113-31.502-26.375l-60.894-341.004c-13.814-77.357 26.321-154.291 97.67-187.222 77.244-35.651 168.946-9.76 216.136 61.027l51.715 77.574h157.747l50.362-75.542c47.971-71.955 141.187-98.275 219.709-62.035 70.093 32.349 110.838 106.682 100.406 183.174l-33.645 246.726c-2.387 17.51-18.518 29.771-36.029 27.382-17.51-2.387-29.77-18.518-27.382-36.029l33.645-246.73c6.627-48.614-19.267-95.856-63.818-116.416-49.904-23.034-109.146-6.304-139.635 39.427l-59.859 89.792c-5.936 8.902-15.926 14.25-26.627 14.25h-192c-10.698 0-20.691-5.347-26.624-14.25l-61.216-91.824c-29.709-44.563-87.438-60.861-136.065-38.419-44.916 20.733-70.183 69.165-61.486 117.862l56.184 314.63h180.082l54.502-81.75c5.933-8.902 15.926-14.25 26.624-14.25h128c10.701 0 20.691 5.347 26.627 14.25l54.499 81.75h174.874c17.674 0 32 14.327 32 32s-14.326 32-32 32h-192c-10.698 0-20.691-5.347-26.624-14.25l-54.502-81.75h-93.747l-54.499 81.75c-5.936 8.902-15.926 14.25-26.627 14.25h-224zM416 496c0 61.856-50.144 112-112 112s-112-50.144-112-112c0-61.856 50.144-112 112-112s112 50.144 112 112zM352 496c0-26.509-21.491-48-48-48s-48 21.491-48 48 21.49 48 48 48c26.508 0 48-21.491 48-48zM704 608h64v-64h64v-64h-64v-64h-64v64h-64v64h64v64z" />
<glyph unicode="&#xe969;" glyph-name="generic-app" d="M736 416h-448v-64h448v64zM288 288h448v-64h-448v64zM128 768c0 35.346 28.654 64 64 64h640c35.347 0 64-28.654 64-64v-640c0-35.347-28.653-64-64-64h-640c-35.346 0-64 28.653-64 64v640zM192 768v-128h640v128h-640zM192 576v-448h640v448h-640z" />
<glyph unicode="&#xe96a;" glyph-name="gift" d="M736 383.994h64v-320h-576v320h64v-256h192v192h64v-192h192v256zM896 639.994v-192h-768v192h168.237c-17.594 50.699-6.342 109.268 34.080 149.688 27.28 27.286 63.562 42.326 102.15 42.326 28.71 0 56.128-8.352 79.533-23.853 23.402 15.501 50.822 23.853 79.533 23.853 38.589 0 74.867-15.037 102.157-42.326 40.419-40.419 51.667-98.992 34.074-149.688h168.237zM591.533 768.008c-17.331 0-33.824-5.45-47.533-15.526v-112.488h112.467c23.056 31.464 20.374 76.027-8.038 104.44-15.2 15.2-35.405 23.574-56.899 23.574h0.003zM367.533 639.994h112.467v112.488c-13.706 10.074-30.202 15.526-47.533 15.526-21.494 0-41.699-8.374-56.893-23.574-28.419-28.413-31.101-72.976-8.045-104.44h0.003zM192 511.994h288v64h-288v-64zM832 575.994h-288v-64h288v64z" />
<glyph unicode="&#xe96b;" glyph-name="glass" d="M320 32l-96 768c0 38.4 25.6 64 64 64h448c38.4 0 67.2-28.8 64-64l-96-768h-384zM640 96l96 704h-448l96-704h256zM435.2 160h153.6l6.4 64h-166.4l6.4-64z" />
<glyph unicode="&#xe96c;" glyph-name="globe" d="M830.419 416h64.266c0.87 10.55 1.315 21.222 1.315 32 0 212.077-171.923 384-384 384-178.928 0-329.274-122.378-371.902-288h188.92c-5.965-31.517-9.019-63.632-9.019-96.093 0-32.41 3.035-64.464 8.964-95.907h-122.314c-9.518 30.304-14.65 62.554-14.65 96 0 10.8 0.535 21.475 1.58 32h-64.266c-0.87-10.55-1.314-21.222-1.314-32 0-212.077 171.923-384 384-384 178.928 0 329.274 122.378 371.901 288h-188.922c5.965 31.517 9.021 63.632 9.021 96.093 0 32.41-3.037 64.464-8.966 95.907h122.317c9.517-30.304 14.65-62.554 14.65-96 0-10.8-0.534-21.475-1.581-32zM512.086 128h-0.451c-41.568 48.656-73.274 102.685-93.936 160h188.464c-20.717-57.302-52.477-111.341-94.077-160zM605.942 142.013c31.654 45.693 56.112 94.755 72.685 145.987h110.563c-40.058-69.248-105.322-122.093-183.248-145.987zM789.19 608h-110.464c-16.534 51.222-40.947 100.252-72.56 145.921 77.824-23.927 143.002-76.737 183.024-145.921zM512.362 768c41.568-48.655 73.274-102.684 93.936-160h-188.464c20.72 57.301 52.477 111.341 94.077 160h0.451zM418.054 753.988c-31.654-45.695-56.112-94.756-72.685-145.988h-110.559c40.058 69.248 105.321 122.092 183.244 145.988zM234.81 288h110.46c16.534-51.222 40.947-100.25 72.56-145.92-77.824 23.93-143 76.739-183.020 145.92zM624.387 352h-224.848c-6.566 31.37-9.936 63.44-9.936 95.907 0 32.518 3.395 64.653 10.006 96.093h224.848c6.566-31.37 9.936-63.44 9.936-95.907 0-32.518-3.395-64.653-10.006-96.093z" />
<glyph unicode="&#xe96d;" glyph-name="group" d="M960 441.136v-345.136h-128v64h64v281.136c0 32.813-21.894 60.579-51.834 69.546 19.946 12.214 37.802 27.51 52.582 45.504 37.965-24.294 63.248-66.733 63.248-115.050h0.003zM128 441.136c0 32.813 21.891 60.579 51.827 69.542-19.946 12.214-37.802 27.51-52.582 45.504-37.962-24.294-63.245-66.733-63.245-115.050v-345.136h128v64h-64v281.139zM672 640.022c0 88.224-71.776 160.006-160 160.006s-160-71.782-160-160.006c0-88.224 71.776-160 160-160s160 71.776 160 160zM608 640.022c0-52.938-43.062-96-96-96s-96 43.062-96 96c0 52.938 43.062 96.006 96 96.006s96-43.069 96-96.006zM736 831.997c-28.57 0-55.155-8.467-77.571-22.874 16.461-14.272 30.778-30.874 42.518-49.325 10.602 5.197 22.47 8.198 35.053 8.198 44.112 0 80-35.888 80-80s-35.888-80-80-80c-0.858 0-1.686 0.102-2.538 0.128-3.155-22-9.472-42.941-18.554-62.406 6.902-1.021 13.907-1.722 21.091-1.722 79.398 0 144 64.598 144 144s-64.602 144-144 144zM309.091 545.722c-9.082 19.466-15.398 40.406-18.554 62.406-0.851-0.026-1.68-0.128-2.538-0.128-44.112 0-80 35.888-80 80s35.888 80 80 80c12.582 0 24.451-3.002 35.053-8.198 11.741 18.451 26.061 35.056 42.518 49.325-22.416 14.406-49.002 22.874-77.571 22.874-79.398 0-144-64.598-144-144s64.602-144 144-144c7.181 0 14.189 0.701 21.091 1.722zM683.693 496.394c-17.587-20.992-38.944-38.685-63.014-52.106h5.35c42.995 0 77.974-32.576 77.974-72.611v-243.674h-320.003v-64h384v307.674c0 55.562-34.704 103.398-84.307 124.72v-0.003zM403.325 444.288c-23.776 13.258-44.874 30.704-62.336 51.36-50.080-21.667-84.989-69.021-84.989-123.971v-307.674h64v307.674c0 40.038 36.742 72.611 81.907 72.611h1.418z" />
<glyph unicode="&#xe96e;" glyph-name="guarantee" d="M831.92 576c0-122.928-69.696-229.821-171.6-283.398l-2.358-1.21c-43.798-22.566-93.395-35.392-145.958-35.392-176.406 0-319.923 143.549-319.923 320s143.517 320 319.923 320c68.464 0 131.923-21.696 184.010-58.47l-46.176-46.176c-39.834 25.603-87.069 40.646-137.834 40.646-141.12 0-255.923-114.845-255.923-256s114.806-256 255.923-256c141.117 0 255.92 114.845 255.92 256 0 13.286-1.328 26.237-3.29 38.982l53.59 53.587c8.877-29.322 13.699-60.387 13.699-92.57h-0.003zM417.814 642.269l-45.251-45.251 136.582-136.595 278.438 278.336c-10.998 18.682-23.859 36.125-38.371 52.138l-240.054-239.971-91.344 91.344zM640.339 76.602l-128.374 83.574-127.626-83.437v137.178c-22.358 7.91-43.75 17.856-64 29.578v-243.494h63.587l128.112 83.763 128.656-83.763h63.645v243.885c-20.246-11.776-41.635-21.779-64-29.741v-137.542z" />
<glyph unicode="&#xe96f;" glyph-name="guided-tour" d="M96.162 383.914l152.902 0.237 95.589 383.664h0.33l0.051 0.202h39.002v-319.92l447.965-0.096v64l-383.981 0.080v255.936c0 35.277-28.704 63.984-63.984 63.984h-88.965l-0.155-0.62-0.807 0.554-95.019-383.873-103.027-0.163 0.099-63.984zM671.958 320v-17.203l-84.246-173.203-0.643-1.411-490.824-0.198 0.138-63.984 490.69 0.198c25.331 0 48.182 14.87 58.461 37.978l90.413 185.875v31.949h160.054c35.347 0 64 28.653 64 64v64c0 35.347-28.653 64-64 64v-128h-288c0-35.331 28.63-63.978 63.958-64z" />
<glyph unicode="&#xe970;" glyph-name="guru" d="M512 0c-70.579 0-128 57.424-128 128h64c0-35.286 28.714-64 64-64s64 28.714 64 64h64c0-70.576-57.418-128-128-128zM759.754 714.502l46.87 46.874-45.251 45.251-46.918-46.918c16.554-13.533 31.738-28.675 45.299-45.206zM512 832c10.8 0 21.472-0.554 32-1.603v65.603h-64v-65.603c10.528 1.050 21.2 1.603 32 1.603zM830.755 543.997c1.072-10.653 1.632-21.456 1.632-32.387 0-10.669-0.55-21.21-1.574-31.613h65.184v64h-65.242zM309.546 759.709l-46.918 46.918-45.251-45.251 46.87-46.874c13.562 16.531 28.746 31.67 45.299 45.206zM191.617 511.61c0 10.931 0.557 21.734 1.632 32.387h-65.245v-64h65.184c-1.024 10.403-1.574 20.944-1.574 31.613h0.003zM640 289.45c78.605 45.424 128.381 130.512 128.381 222.173 0 141.373-115.011 256.381-256.381 256.381s-256.387-115.008-256.387-256.381c0-91.661 49.776-176.749 128.387-222.173v-96.998h255.997v96.998h0.003zM448 329.011l-18.301 8.662c-66.874 31.686-110.086 99.962-110.086 173.949 0 106.074 86.307 192.381 192.387 192.381s192.381-86.307 192.381-192.381c0-73.987-43.213-142.262-110.080-173.949l-18.301-8.662v-72.563h-128v72.563z" />
<glyph unicode="&#xe971;" glyph-name="hd" d="M673.136 439.050c-12.15-10.189-26.842-17.136-42.611-20.15-11.437-2.090-23.056-3.056-34.688-2.88h-74.989v29.11h18.829v133.712h-18.829v29.107h74.659c17.648 0.464 35.235-2.246 51.862-7.997 18.675-6.678 34.266-19.616 43.936-36.467 8.73-15.821 13.056-33.568 12.554-51.501 1.549-27.539-9.725-54.301-30.723-72.934zM576.019 578.835v-133.709h17.504c18.15-0.922 36.058 4.4 50.544 15.034 15.587 12.87 24.128 32.013 23.123 51.824 1.062 19.59-7.216 38.576-22.461 51.501-14.458 10.72-32.355 16.16-50.544 15.35h-18.166zM375.498 445.126h20.813v-29.107h-76.31v29.11h18.829v133.709h-18.829v29.11h75.981v-29.11h-20.816v-47.664h70.694v47.664h-19.821v29.11h76.643v-29.114h-18.829v-133.709h18.829v-29.11h-76.643v29.11h19.821v56.941h-70.362v-56.941zM128 256.006h767.994c35.293 0 64.006 28.714 64.006 64v383.987c0 35.293-28.714 64.006-64.006 64.006h-767.994c-35.286 0-64-28.714-64-64.006v-383.987c0-35.286 28.714-64 64-64zM128 320.006v384l768-0.013-0.006-383.987h-767.994zM223.997 192h576v-64h-576v64z" />
<glyph unicode="&#xe972;" glyph-name="history" d="M315.534 258.893c75.096-100.592 206.482-150.691 335.132-116.221 168.576 45.171 268.618 218.445 223.446 387.021-45.168 168.574-218.445 268.614-387.018 223.444-122.525-32.83-208.843-133.332-229.518-250.516l113.111 62.112 32.73-59.606-213.935-117.478-117.478 213.936 59.605 32.73 60.74-110.611c27.97 138.394 131.51 256.095 277.146 295.118 204.851 54.89 415.411-66.678 470.301-271.527 54.89-204.851-66.678-415.414-271.53-470.304-159.789-42.816-323.053 21.734-413.199 149.427l60.467 32.477zM594.979 680v-249.917l94.042-94.042-48.083-48.083-113.958 113.958v278.083h68z" />
<glyph unicode="&#xe973;" glyph-name="home-sun" d="M757.424 734.669c53.35-53.35 53.354-140.157 0-193.51-9.363-9.363-19.824-16.931-30.886-23.008-0.733-0.403-1.485-0.768-2.221-1.158l-49.248 49.248c14.032 2.787 26.934 9.648 37.28 19.99 13.805 13.805 21.408 32.157 21.408 51.683s-7.603 37.878-21.408 51.683c-13.805 13.805-32.163 21.408-51.683 21.408s-37.878-7.603-51.683-21.408c-10.342-10.349-17.203-23.251-19.99-37.28l-49.248 49.248c0.39 0.739 0.752 1.488 1.158 2.221 6.077 11.062 13.642 21.523 23.008 30.886 53.35 53.35 140.157 53.347 193.51 0l0.003-0.003zM704.077 825.552v70.448h-64.026v-66.518c21.37 2.282 43.002 0.896 64.026-3.93zM817.638 749.603l53.395 53.395-45.274 45.274-53.395-53.395c8.621-6.138 16.947-12.87 24.675-20.598s14.458-16.054 20.595-24.675h0.003zM649.082 501.696l-233.117 233.098-320.125-320.122v-414.672h192.108v64.026h-128.086v324.125l256.099 256.099 256.099-256.099v-324.125h-128.083v-64.026h192.109v414.672l-87.005 87.024zM524.307 774.275c7.67 7.667 15.933 14.349 24.483 20.454l-53.126 53.13-45.274-45.274 53.248-53.248c6.16 8.71 12.874 17.146 20.669 24.941v-0.003zM850.323 671.907c3.763-21.165 3.894-42.8 0.573-64.026h77.267v64.026h-77.84zM797.043 501.536c-7.734-7.734-16.106-14.4-24.746-20.525l53.238-53.238 45.274 45.274-53.165 53.165c-6.141-8.621-12.87-16.95-20.598-24.678l-0.003 0.003z" />
<glyph unicode="&#xe974;" glyph-name="home" d="M512 896l-384-384v-512h256l0.048 64h-192.046v416l319.998 320 320-320v-416h-192.048l0.048-64h256v512l-384 384z" />
<glyph unicode="&#xe975;" d="M625.126 672c-21.398 0-41.382-10.694-53.251-28.499l-45.002-67.501h-110.874v-64h110.874c21.398 0 41.382 10.694 53.251 28.499l45.002 67.501h238.874c17.674 0 32-14.326 32-32v-224c0-17.674-14.326-32-32-32h-236.224l-46.31 92.621c-10.842 21.683-33.002 35.379-57.242 35.379h-108.224v-64h108.224l46.31-92.621c10.842-21.683 33.002-35.379 57.242-35.379h236.224c53.021 0 96 42.979 96 96v224c0 53.021-42.979 96-96 96h-238.874z" />
<glyph unicode="&#xe976;" d="M784 448c26.509 0 48 21.491 48 48s-21.491 48-48 48c-26.509 0-48-21.491-48-48s21.491-48 48-48z" />
<glyph unicode="&#xe977;" d="M352 576h-288l32-64h256v64z" />
<glyph unicode="&#xe978;" d="M352 448h-224l32-64h192v64z" />
<glyph unicode="&#xe979;" glyph-name="image" d="M160 768c-53.019 0-96-42.981-96-96v-448c0-53.021 42.981-96 96-96h64c17.673 0 32 14.326 32 32s-14.327 32-32 32h-64c-17.673 0-32 14.326-32 32v448c0 17.673 14.327 32 32 32h704c17.674 0 32-14.327 32-32v-192c0-17.674 14.326-32 32-32s32 14.326 32 32v192c0 53.019-42.979 96-96 96h-704zM448 512c0 70.691-57.309 128-128 128s-128-57.309-128-128 57.308-128 128-128c70.691 0 128 57.309 128 128zM384 512c0-35.347-28.653-64-64-64s-64 28.653-64 64c0 35.347 28.654 64 64 64s64-28.653 64-64zM745.373 470.627c12.496 12.496 32.758 12.496 45.254 0l160-160c12.496-12.496 12.496-32.758 0-45.254s-32.758-12.496-45.254 0l-137.373 137.373-105.373-105.373c-12.496-12.496-32.758-12.496-45.254 0l-41.373 41.373-201.373-201.373c-12.496-12.496-32.758-12.496-45.254 0s-12.497 32.758 0 45.254l224 224c12.496 12.496 32.758 12.496 45.254 0l41.373-41.373 105.373 105.373zM512 192c-17.674 0-32-14.326-32-32s14.326-32 32-32h416c17.674 0 32 14.326 32 32s-14.326 32-32 32h-416z" />
<glyph unicode="&#xe97a;" glyph-name="information-filled" d="M512 64c-212.077 0-384 171.923-384 384s171.923 384 384 384c212.077 0 384-171.923 384-384s-171.923-384-384-384zM544 575.472v64.528h-64v-64.528h64zM544 288v224h-64v-224h64z" />
<glyph unicode="&#xe97b;" glyph-name="information-outline" d="M544 640v-64.528h-64v64.528h64zM544 512v-224h-64v224h64zM896 448c0 212.077-171.923 384-384 384s-384-171.923-384-384c0-212.077 171.923-384 384-384s384 171.923 384 384zM832.659 448c0-177.094-143.565-320.659-320.659-320.659s-320.66 143.565-320.66 320.659c0 177.094 143.565 320.66 320.66 320.66s320.659-143.565 320.659-320.66z" />
<glyph unicode="&#xe97c;" glyph-name="infrastructure-internal" d="M512 704.96c-61.76 0-112-50.24-112-112s50.24-112 112-112c61.76 0 112 50.24 112 112s-50.24 112-112 112zM512 544.96c-26.56 0-48 21.44-48 48s21.44 48 48 48c26.56 0 48-21.44 48-48s-21.44-48-48-48zM405.12 462.080c-31.36-13.44-53.12-43.2-53.12-77.44v-192.32h64.32v192.32c0 24.96 23.040 45.44 51.2 45.44 0 0-51.2 19.2-62.4 32zM625.92 459.2c-15.68-13.44-33.6-24-53.12-31.040 20.16-5.44 35.2-22.72 35.2-43.52v-128.64h-127.68v-63.68h191.68v192.32c0 32-18.56 59.84-46.080 74.56zM225.28 767.68c17.6 0 32-14.4 32-32s-14.4-32-32-32c-17.6 0-32 14.4-32 32s14.4 32 32 32zM225.28 831.68c-52.8 0-96-42.88-96-96s42.88-96 96-96c53.12 0 96 42.88 96 96s-42.88 96-96 96zM799.68 767.68c17.6 0 32-14.4 32-32s-14.4-32-32-32c-17.6 0-32 14.4-32 32s14.4 32 32 32zM799.68 831.68c-52.8 0-96-42.88-96-96s42.88-96 96-96c53.12 0 96 42.88 96 96s-42.88 96-96 96zM512 832c50.88 0 99.2-10.24 143.68-28.16 9.6 20.16 23.36 37.76 40.32 52.48-56 25.28-118.080 39.68-183.68 39.68s-127.36-14.4-183.36-39.36c16.96-14.4 30.72-32 40.32-52.48 44.16 17.92 92.48 27.84 143.040 27.84h-0.32zM799.68 191.68c17.6 0 32-14.4 32-32s-14.4-32-32-32c-17.6 0-32 14.4-32 32s14.4 32 32 32zM799.68 255.68c-52.8 0-96-42.88-96-96s42.88-96 96-96c53.12 0 96 42.88 96 96s-42.88 96-96 96zM225.28 191.68c17.6 0 32-14.4 32-32s-14.4-32-32-32c-17.6 0-32 14.4-32 32s14.4 32 32 32zM225.28 255.68c-52.8 0-96-42.88-96-96s42.88-96 96-96c53.12 0 96 42.88 96 96s-42.88 96-96 96zM156.48 303.36c-18.24 44.8-28.48 93.44-28.48 144.64s10.24 99.52 28.16 144c-20.16 9.6-37.76 23.68-52.16 40.32-25.6-56.32-40-118.72-40-184.64s14.72-128.32 40.32-184.96c14.4 16.96 32 30.72 52.16 40.32v0.32zM867.52 303.68c20.16-9.6 37.76-23.36 52.48-40 25.6 56.32 40 118.72 40 184.32s-14.4 127.68-40 184c-14.4-16.96-32-30.72-52.48-40.32 17.92-44.48 28.16-92.8 28.16-143.68s-10.24-99.84-28.48-144.32h0.32zM655.36 92.16c-44.48-17.92-92.48-28.16-143.36-28.16s-98.56 9.92-142.72 27.84c-9.6-20.16-23.36-38.080-40.32-52.48 56-24.96 117.76-39.36 182.72-39.36s127.36 14.4 183.36 39.36c-16.64 14.4-30.4 32.32-40 52.48l0.32 0.32z" />
<glyph unicode="&#xe97d;" glyph-name="installation" d="M512 323.040l192 85.334v-70.026l-113.222-50.32 113.222-50.32v-70.026l-192 85.334-192-85.334v70.026l113.222 50.32-113.222 50.32v70.026l192-85.334zM960 479.939h-128v-383.914h-64v383.914h-512v-383.914h-64v383.914h-128v320.037h896v-320.037zM474.138 735.977l-192.038-192.037h267.757l192.038 192.037h-267.757zM128 543.939h63.6l192.038 192.037h-255.638v-192.037zM896 735.977h-63.606l-192.038-192.037h255.645v192.037z" />
<glyph unicode="&#xe97e;" glyph-name="internet-tv" d="M512.070 513.712c59.91 0 116.23-23.328 158.598-65.696l-45.322-45.309c-30.259 30.262-70.483 46.922-113.277 46.922s-83.027-16.659-113.283-46.922l-45.322 45.309c42.368 42.365 98.694 65.696 158.605 65.696zM263.172 538.32c137.238 137.251 360.556 137.251 497.795 0l-45.309-45.309c-112.269 112.23-294.922 112.256-407.177 0l-45.309 45.309zM587.011 364.358l-44.25-44.237h-61.392l-44.246 44.237c20.013 20.026 46.64 31.053 74.947 31.053s54.922-11.027 74.941-31.053zM895.994 256.006h-319.994v63.994h-128v-63.994h-320c-35.286 0-64 28.714-64 64v383.987c0 35.293 28.714 64.006 64 64.006h767.994c35.293 0 64.006-28.714 64.006-64.006v-383.987c0-35.286-28.714-64-64.006-64zM128 704.006v-384h767.994l0.006 383.987-768 0.013zM799.997 192h-576v-64h576v64z" />
<glyph unicode="&#xe97f;" glyph-name="invoice" d="M767.776 96.058h-511.786v703.889h402.678l109.238-109.232v-530.714h63.99v557.21l-146.72 146.723h-493.178v-831.866h639.763v63.99h-63.987zM385.555 405.379h34.957c7.299-33.194 21.421-58.451 42.381-75.763 20.96-17.322 47.968-25.984 81.037-25.984 25.52 0 47.917 5.088 67.174 15.235 13.024 6.637 25.52 16.998 37.494 31.056l-31.245 36.906c-9.235-10.035-16.784-17.059-22.646-21.098-14.586-9.898-30.982-14.835-49.216-14.835-22.784 0-40.618 8.198-53.504 24.595-5.213 6.65-10.285 16.611-15.235 29.882h78.112v32.032h-84.749c-0.262 4.55-0.387 9.037-0.387 13.472 0 2.723 0.064 5.523 0.189 8.4h102.531v32.019h-98.621c4.813 21.098 13.309 37.456 25.482 49.117 12.173 11.648 26.845 17.472 44.029 17.472 14.973 0 27.206-4.224 36.72-12.685 9.498-8.474 14.259-19.334 14.259-32.621v-3.51h45.693v88.659h-42.381v-12.112c-17.709 12.112-37.107 18.16-58.189 18.16-37.107 0-67.050-14.259-89.834-42.768-15.098-19.008-25.184-42.243-30.256-69.712h-33.795v-32.019h30.669c-0.138-3.261-0.198-6.186-0.198-8.8 0-3.638 0.125-8 0.387-13.072h-30.858v-32.026z" />
<glyph unicode="&#xe980;" glyph-name="ip-address" d="M378.915 665.123v-178.246h-26.915v-38.877h105.37v38.877h-26.915v178.246h26.915v38.877h-105.37v-38.877h26.915zM510.819 665.123v-178.246h-26.915v-38.877h114.154v38.877h-35.696v54.845h24.624c78.010 0 117.014 26.73 117.014 80.186 0 29.157-11.389 51.084-34.17 65.778-9.546 6.132-20.362 10.356-32.451 12.67-11.962 2.43-28.822 3.645-50.586 3.645h-102.89v-38.877h26.915zM583.93 579.386h-21.568v85.737h23.859c43.651 0 65.475-14 65.475-42.003 0-29.155-22.589-43.734-67.766-43.734zM511.997 896c176.496 0 320.090-143.587 320.090-320.083 0-165.696-126.56-302.374-288.083-318.486v-193.421l-32.003-64.010-32.003 64.010v193.421c-161.526 16.109-288.083 152.79-288.083 318.486 0 176.496 143.587 320.083 320.083 320.083zM255.92 575.917c0-141.206 114.876-256.083 256.076-256.083 141.206 0 256.083 114.88 256.083 256.080s-114.883 256.077-256.083 256.077c-141.2 0-256.076-114.867-256.076-256.074z" />
<glyph unicode="&#xe981;" glyph-name="ip-phone" d="M960 128.669v221.331c0 62.65-32.675 121.389-86.25 156.784-20.95 104.355-114.17 181.213-223.088 181.213-17.418 0-35.216-2.426-53.942-7.376-48.083 55.382-115.683 86.707-188.72 86.707-138.704 0-251.555-110.95-251.555-247.331 0-5.638 0.589-13.917 1.325-21.981-47.302-26.163-93.77-72.694-93.77-178.688 0-105.13 86.931-190.662 193.782-190.662h30.33v64h-30.33c-71.565 0-129.782 56.819-129.782 126.662 0 80.006 29.517 109.37 77.142 130.826l21.725 9.789-3.149 23.619c-1.318 9.888-3.274 29.539-3.274 36.438 0 101.088 84.138 183.331 187.562 183.331 59.968 0 115.155-28.624 151.398-78.531l14.051-19.338 22.525 7.981c20.339 7.2 37.712 10.557 54.682 10.557 82.182 0 151.907-60.614 162.176-140.995l2.064-16.118 14.23-7.85c41.869-23.082 66.867-63.843 66.867-109.037v-157.331h-159.789v-64h223.789zM480 192c0 17.674 14.326 32 32 32s32-14.326 32-32c0-17.674-14.326-32-32-32s-32 14.326-32 32zM448 544c-53.021 0-96-42.979-96-96v-288c0-53.021 42.979-96 96-96h128c53.021 0 96 42.979 96 96v288c0 53.021-42.979 96-96 96h-128zM416 448c0 17.674 14.326 32 32 32 0-17.674 14.326-32 32-32h64c17.674 0 32 14.326 32 32 17.674 0 32-14.326 32-32v-288c0-17.674-14.326-32-32-32h-128c-17.674 0-32 14.326-32 32v288z" />
<glyph unicode="&#xe982;" glyph-name="it-solutions" d="M864 672c-27.165 0-51.693 11.283-69.158 29.418l-126.851-57.66c-4.877 21.362-14.029 41.095-26.506 58.253l126.87 57.669c-0.234 2.742-0.355 5.517-0.355 8.32 0 53.019 42.979 96 96 96s96-42.981 96-96c0-53.019-42.979-96-96-96zM864 736c17.674 0 32 14.327 32 32s-14.326 32-32 32c-17.674 0-32-14.327-32-32s14.326-32 32-32zM607.645 599.68l187.203-85.091c17.462 18.131 41.99 29.411 69.152 29.411 53.021 0 96-42.979 96-96s-42.979-96-96-96c-53.021 0-96 42.979-96 96 0 2.806 0.122 5.584 0.355 8.326l-187.197 85.091c-17.466-18.134-41.994-29.418-69.158-29.418s-51.693 11.283-69.158 29.418l-126.852-57.661c-4.876 21.363-14.027 41.098-26.505 58.253l126.871 57.67c-0.234 2.742-0.355 5.517-0.355 8.32 0 53.019 42.979 96 96 96s96-42.981 96-96c0-2.803-0.122-5.578-0.355-8.32zM512 576c17.674 0 32 14.326 32 32s-14.326 32-32 32c-17.674 0-32-14.326-32-32s14.326-32 32-32zM864 416c17.674 0 32 14.326 32 32s-14.326 32-32 32c-17.674 0-32-14.326-32-32s14.326-32 32-32zM255.281 436.189c0.142 1.158 0.264 2.32 0.364 3.491l187.203-85.091c17.462 18.131 41.99 29.411 69.152 29.411 53.021 0 96-42.979 96-96s-42.979-96-96-96c-53.021 0-96 42.979-96 96 0 2.806 0.122 5.584 0.355 8.326l-187.197 85.091c-17.464-18.134-41.993-29.418-69.158-29.418-53.019 0-96 42.979-96 96s42.981 96 96 96c53.019 0 96-42.979 96-96 0-4-0.244-7.939-0.719-11.811zM160 416c17.673 0 32 14.326 32 32s-14.327 32-32 32c-17.673 0-32-14.326-32-32s14.327-32 32-32zM544 288c0 17.674-14.326 32-32 32s-32-14.326-32-32c0-17.674 14.326-32 32-32s32 14.326 32 32zM667.99 252.25l126.858-57.661c17.462 18.131 41.99 29.411 69.152 29.411 53.021 0 96-42.979 96-96s-42.979-96-96-96c-53.021 0-96 42.979-96 96 0 2.806 0.122 5.584 0.355 8.326l-126.87 57.67c12.477 17.158 21.629 36.893 26.506 58.253zM864 96c17.674 0 32 14.326 32 32s-14.326 32-32 32c-17.674 0-32-14.326-32-32s14.326-32 32-32zM581.155 354.589l126.858 57.661c4.877-21.36 14.029-41.094 26.506-58.253l-126.87-57.67c-1.939 22.55-11.67 42.874-26.493 58.262z" />
<glyph unicode="&#xe983;" glyph-name="landline-internet" d="M896.493 511.507v-511.507h-256.33v64.083h192.246v420.89l-320.41 320.41-320.413-320.41v-420.89h192.246v-64.083h-256.326v511.507l384.493 384.493 384.493-384.493zM670.672 256.016c-42.368 42.368-98.688 65.696-158.598 65.696s-116.237-23.331-158.605-65.696l45.322-45.309c30.256 30.262 70.49 46.922 113.283 46.922s83.018-16.659 113.277-46.922l45.322 45.309zM760.97 346.32c-137.238 137.251-360.557 137.251-497.795 0l45.309-45.309c112.256 112.256 294.909 112.23 407.178 0l45.309 45.309zM542.765 128.122l44.25 44.237c-20.019 20.026-46.634 31.053-74.941 31.053s-54.934-11.027-74.947-31.053l44.246-44.237h61.392z" />
<glyph unicode="&#xe984;" glyph-name="landline-phone" d="M64 768v-640c0-35.347 28.654-64 64-64h192c35.347 0 64 28.653 64 64v640c0 35.346-28.653 64-64 64h-192c-35.346 0-64-28.654-64-64zM128 768h192v-640h-192v640zM640 288c17.674 0 32 14.326 32 32s-14.326 32-32 32c-17.674 0-32-14.326-32-32s14.326-32 32-32zM544 320c0-17.674-14.326-32-32-32s-32 14.326-32 32c0 17.674 14.326 32 32 32s32-14.326 32-32zM768 288c17.674 0 32 14.326 32 32s-14.326 32-32 32c-17.674 0-32-14.326-32-32s14.326-32 32-32zM448 160h448c35.347 0 64 28.653 64 64v448c0 35.346-28.653 64-64 64h-448v-64h448v-448h-448v-64zM448 608v-192h384v192h-384zM512 544h256v-64h-256v64z" />
<glyph unicode="&#xe985;" glyph-name="laptop" d="M831.994 256.006h-639.994c-35.286 0-64 28.714-64 64v383.987c0 35.293 28.714 64.006 64 64.006h639.994c35.293 0 64.006-28.714 64.006-64.006v-383.987c0-35.286-28.714-64-64.006-64zM192 704.006v-384h639.994l0.006 383.987-640 0.013zM960 160c0 17.674-14.326 32-32 32h-832c-17.673 0-32-14.326-32-32s14.327-32 32-32h832c17.674 0 32 14.326 32 32z" />
<glyph unicode="&#xe986;" glyph-name="like-active" d="M694.4 768c48.848 0 88.432-16.258 120.886-48.729 32.384-32.398 48.714-72.29 48.714-121.924 0-25.539-4.563-50.95-13.885-76.387-9.165-25.005-25.744-54.464-50.899-88.528-25.078-33.965-59.203-73.152-102.73-117.645-43.594-44.563-99.11-97.734-166.656-159.578-0.026-0.022-0.051-0.048-0.080-0.070l-17.75-16.026-17.75 16.026c-0.029 0.022-0.054 0.048-0.080 0.070-67.546 61.843-123.062 115.014-166.656 159.578-43.525 44.493-77.652 83.68-102.731 117.645-25.153 34.064-41.732 63.523-50.897 88.528-9.322 25.437-13.886 50.848-13.886 76.387 0 49.634 16.33 89.526 48.713 121.924 32.456 32.471 72.038 48.729 120.887 48.729 29.283 0 56.349-6.857 81.693-20.615 25.203-13.679 50.397-35.716 75.226-67.589l31.776-42.855 51.411 38.12-32.442 43.734c-28.864 37.126-60.554 65.902-95.437 84.838-34.816 18.897-72.39 28.367-112.227 28.367-65.071 0-121.169-22.48-166.153-67.484-45.057-45.077-67.447-101.549-67.447-167.169 0-33.366 5.996-66.221 17.794-98.41 11.956-32.621 32.177-67.514 59.503-104.522 27.401-37.107 63.675-78.595 108.468-124.384 44.708-45.702 101.169-99.754 169.265-162.099l60.97-55.046 60.97 55.046c68.096 62.342 124.557 116.397 169.264 162.099 44.794 45.789 81.069 87.277 108.47 124.384 27.325 37.008 47.546 71.901 59.501 104.522 11.798 32.189 17.795 65.043 17.795 98.41 0 65.619-22.39 122.091-67.446 167.169-44.986 45.004-101.082 67.484-166.154 67.484-41.779 0-80.918-9.963-116.851-29.975l-0.704-0.392-20.858-13.034 33.914-54.275 19.466 12.163c25.962 14.314 54.118 21.514 85.034 21.514z" />
<glyph unicode="&#xe987;" glyph-name="like-selected" d="M329.6 832c-65.071 0-121.169-22.48-166.153-67.484-45.057-45.077-67.447-101.549-67.447-167.169 0-33.366 5.996-66.221 17.794-98.41 11.956-32.621 32.176-67.514 59.503-104.522 27.401-37.107 63.675-78.595 108.468-124.384 44.708-45.702 101.169-99.757 169.265-162.099l60.97-55.046 60.97 55.046c68.096 62.346 124.557 116.397 169.264 162.099 44.794 45.789 81.069 87.277 108.47 124.384 27.325 37.008 47.546 71.901 59.501 104.522 11.798 32.189 17.795 65.043 17.795 98.41 0 65.62-22.39 122.091-67.446 167.169-44.986 45.004-101.082 67.484-166.154 67.484-39.837 0-77.411-9.47-112.227-28.367-24.685-13.4-47.773-31.729-69.389-54.456-19.683 21.457-41.773 39.169-66.333 52.848-35.933 20.012-75.072 29.975-116.851 29.975z" />
<glyph unicode="&#xe988;" glyph-name="list" d="M160 640c-17.673 0-32-14.326-32-32s14.327-32 32-32c17.673 0 32 14.326 32 32s-14.327 32-32 32zM896 640h-640v-64h640v64zM128 448c0 17.674 14.327 32 32 32s32-14.326 32-32c0-17.674-14.327-32-32-32s-32 14.326-32 32zM896 480h-640v-64h640v64zM128 288c0 17.674 14.327 32 32 32s32-14.326 32-32c0-17.674-14.327-32-32-32s-32 14.326-32 32zM896 320h-640v-64h640v64z" />
<glyph unicode="&#xe989;" glyph-name="live-shop" d="M319.776 752.39c-28.765-28.765-50.339-63.322-63.754-100.96v-171.651h-127.987v176.16h62.4c15.798 53.072 44.291 101.891 84.096 141.696 63.424 63.43 147.77 98.365 237.472 98.365s174.042-34.934 237.466-98.365c39.805-39.805 68.301-88.624 84.096-141.696h62.4v-176.16h-127.987v171.651c-13.414 37.638-34.989 72.195-63.754 100.96-51.347 51.341-119.606 79.619-192.221 79.619s-140.883-28.282-192.227-79.619zM704 151.021l140.010-112.010c9.606-7.683 22.765-9.181 33.853-3.853s18.138 16.541 18.138 28.842v256c0 12.301-7.050 23.514-18.138 28.842s-24.246 3.83-33.853-3.853l-140.010-112.010v87.021c0 17.674-7.165 33.674-18.746 45.254l-45.254-45.254v-256h-384v256h128l-64 64h-64c-35.346 0-64-28.653-64-64v-256c0-35.347 28.654-64 64-64h384c35.347 0 64 28.653 64 64v87.021zM832 130.579l-76.774 61.421 76.774 61.421v-122.842zM512 368c-106.038 0-192 85.962-192 192s85.962 192 192 192c106.038 0 192-85.961 192-192s-85.962-192-192-192zM512 432c70.691 0 128 57.309 128 128s-57.309 128-128 128c-70.691 0-128-57.309-128-128s57.309-128 128-128z" />
<glyph unicode="&#xe98a;" glyph-name="loading-circle" d="M512 64c212.077 0 384 171.923 384 384s-171.923 384-384 384v-64c176.733 0 320-143.27 320-320s-143.267-320-320-320c-117.92 0-220.946 63.786-276.453 158.736l-55.291-32.253c66.609-113.942 190.237-190.483 331.744-190.483z" />
<glyph unicode="&#xe98b;" glyph-name="locate-me" d="M544 896h-64v-65.314c-186.554-15.39-335.295-164.132-350.686-350.686h-65.314v-64h65.314c13.583-164.646 131.039-299.84 286.686-339.901v66.55c-129.828 40.778-224 162.067-224 305.35 0 176.73 143.27 320 320 320 10.8 0 21.475-0.535 32-1.58v129.58zM672 448c0 88.365-71.635 160-160 160s-160-71.635-160-160c0-88.365 71.635-160 160-160s160 71.635 160 160zM608 448c0-53.021-42.979-96-96-96s-96 42.979-96 96c0 53.021 42.979 96 96 96s96-42.979 96-96zM608 753.35v66.552c155.648-40.061 273.104-175.255 286.685-339.902h65.315v-64h-65.315c-15.389-186.554-164.131-335.296-350.685-350.685v-65.315h-64v129.581c10.525-1.046 21.2-1.581 32-1.581 176.73 0 320 143.27 320 320 0 143.283-94.173 264.574-224 305.35z" />
<glyph unicode="&#xe98c;" glyph-name="lock-closed" d="M800 64h-576v448h576v-448zM735.936 608c0 123.514-100.486 224-224 224s-224-100.486-224-224v-32h64v32c0 88.224 71.776 160 160 160s160-71.776 160-160v-32h64v32z" />
<glyph unicode="&#xe98d;" glyph-name="lock-open" d="M800 64h-576v448h576v-448zM288 128h448v320h-448v-320zM511.936 608c0 123.514-100.486 224-224 224s-224-100.486-224-224v-32h64v32c0 88.224 71.776 160 160 160s160-71.776 160-160v-32h64v32z" />
<glyph unicode="&#xe98e;" glyph-name="lock" d="M160 544v-512h704v512h-704zM800 96h-576v384h576v-384zM512 800c105.6 0 192-86.4 192-192h64c0 140.8-115.2 256-256 256s-256-115.2-256-256h64c0 105.6 86.4 192 192 192zM480 297.6v-137.6h64v137.6c19.2 9.6 32 32 32 54.4 0 35.2-28.8 64-64 64s-64-28.8-64-64c0-35.2 12.8-44.8 32-54.4z" />
<glyph unicode="&#xe98f;" glyph-name="magic-wand" d="M832.006 864.004c0 17.673 14.326 32 32 32s32-14.327 32-32v-32.003h32.003c17.674 0 32-14.327 32-32s-14.326-32-32-32h-32.003v-31.997c0-17.673-14.326-32-32-32s-32 14.327-32 32v31.997h-31.997c-17.674 0-32 14.327-32 32s14.326 32 32 32h31.997v32.003zM619.648 419.882l135.766 135.763c24.992 24.995 24.992 65.517 0 90.511l-45.254 45.255c-24.995 24.994-65.517 24.994-90.512 0l-511.055-511.056c-24.994-24.995-24.994-65.517 0-90.512l45.255-45.254c24.994-24.992 65.516-24.992 90.51 0l339.412 339.411-45.254 45.254-339.413-339.411-45.255 45.258 375.292 375.29 90.509-90.509zM710.16 600.902l-90.512-90.512-45.254 45.254 90.512 90.511 45.254-45.254zM384 864.004c0 17.673 14.326 32 32 32s32-14.327 32-32v-32.003h32c17.674 0 32-14.327 32-32s-14.326-32-32-32h-32v-31.997c0-17.673-14.326-32-32-32s-32 14.327-32 32v31.997h-32c-17.674 0-32 14.327-32 32s14.326 32 32 32h32v32.003zM832.006 416c0 17.674 14.326 32 32 32s32-14.326 32-32v-32.003h32.003c17.674 0 32-14.326 32-32s-14.326-32-32-32h-32.003v-31.997c0-17.674-14.326-32-32-32s-32 14.326-32 32v31.997h-31.997c-17.674 0-32 14.326-32 32s14.326 32 32 32h31.997v32.003z" />
<glyph unicode="&#xe990;" glyph-name="male" d="M512 640c-70.4 0-128 57.6-128 128s57.6 128 128 128c70.4 0 128-57.6 128-128s-57.6-128-128-128zM512 832c-35.2 0-64-28.8-64-64s28.8-64 64-64c35.2 0 64 28.8 64 64s-28.8 64-64 64zM736 472.8c0 74.4-60.8 135.2-135.2 135.2h-177.6c-74.4 0-135.2-60.8-135.2-135.2v-216.8h64v216.8c0 39.2 32 71.2 71.2 71.2h177.6c39.2 0 71.2-32 71.2-71.2v-216.8h64v216.8zM608 352h-64v-288h-64v288h-64v-352h192v352z" />
<glyph unicode="&#xe991;" glyph-name="map-pin-A1" d="M832.086 575.917c0 176.496-143.594 320.083-320.090 320.083s-320.083-143.587-320.083-320.083c0-165.696 126.557-302.378 288.083-318.486v-193.421l32.003-64.010 32.003 64.010v193.421c161.523 16.112 288.083 152.79 288.083 318.486zM511.997 319.834c-141.2 0-256.077 114.877-256.077 256.083s114.877 256.074 256.077 256.074c141.2 0 256.083-114.877 256.083-256.077s-114.877-256.083-256.083-256.083v0.003zM503.856 487.542h22.371l-11.658 31.037h-90.118l-11.658-31.037h22.371v-35.29h-83.184v35.29h17.962l77.514 197.091h43.955l77.67-197.091h18.118v-35.29h-83.344v35.29zM469.354 642.253l-32.141-89.488h64.438l-32.298 89.488zM569.869 549.456v30.406h35.763v93.741l-36.394-14.179-9.61 25.68 53.094 23.158h28.358v-128.4h35.763v-30.406h-106.976z" />
<glyph unicode="&#xe992;" glyph-name="map-pin-empty" d="M832.086 575.917c0 176.496-143.594 320.083-320.090 320.083s-320.083-143.587-320.083-320.083c0-165.696 126.557-302.378 288.083-318.486v-193.421l32.003-64.010 32.003 64.010v193.421c161.523 16.112 288.083 152.79 288.083 318.486zM511.997 319.834c-141.2 0-256.077 114.877-256.077 256.083s114.877 256.074 256.077 256.074c141.2 0 256.083-114.877 256.083-256.077s-114.877-256.080-256.083-256.080z" />
</font>
</defs>
</svg>
